Loading...
Error

Безумный Макс 3: Под куполом грома / Mad Max Beyond Thunderdome (Джордж Миллер, Джордж Огилве) [1985 г., боевик, приключения, HDTVRip-AVC] 4xRus + Original

Статистика раздачи
Размер:  3,77 GB   |    Зарегистрирован:  4 года   |    Скачан:  8 раз

Полного источника не было: 1 год 2 месяца

Сидов:  0  |  0 KB/s  ]   Личеров:  0  |  0 KB/s  ]

* - сиды/пиры с внешних источников

   
 
Автор Сообщение

garry Пол:Муж

11-Ноя-2012 22:46

Безумный Макс 3: Под куполом грома / Mad Max Beyond Thunderdome


Год выпуска: 1985
Жанр: боевик, приключения
Страна: США , Австралия
Режиссер: Джордж Миллер, Джордж Огилве
В ролях: Мэл Гибсон, Тина Тёрнер, Брюс Спенс, Адам Кокберн, Фрэнк Тринг, Анджело Росситто, Пол Ларссон, Энгри Андерсон, Роберт Грубб, Джордж Спартелс
Сюжет фильма:
В городе Батертауне правит коварная властительница Энтити. Для укрепления своей власти она пытается использовать Макса, непревзойденного мастера дорожных схваток. Но теперь завораживающую череду автомобильных разборок под испепеляющим солнцем начинают сменять невероятные рукопашные бои.

  • Мировая премьера: 10 июля 1985


Качество видео: HDTVRip-AVC

Продолжительность: 01:30:58
Формат: MKV
Видео: x264, 1120x466, 3130 kbps
Аудио #1: русский, дублированный, AC3 5.1, 384 kbps
Аудио #2: английский, оригинал, AC3 5.1, 384 kbps
Аудио #3: русский, многоголосый закадровый [профессиональный, Киномания], AC3 5.1, 384 kbps (отдельно)
Аудио #4: русский, одноголосый закадровый [авторский, Гаврилов], AC3 5.1, 384 kbps (отдельно)
Аудио #5: русский, одноголосый закадровый [авторский, Живов], AC3 5.1, 384 kbps (отдельно)
Субтитры #1: тип: вшитые отключаемые, русский, формат: SRT
Субтитры #2: тип: вшитые отключаемые, английский, формат: SRT

Код:

General
 Unique ID : 179294988077962383221315251838395121725 (0x86E2F5698C60B7DE80225503CF08803D)
 Complete name : F:\FILMS\___ - R - ___\Mad Max Beyond Thunderdome\Mad Max Beyond Thunderdome.mkv
 Format : Matroska
 Format version : Version 2
 File size : 2.91 GiB
 Duration : 1h 46mn
 Overall bit rate : 3 897 Kbps
 Encoded date : UTC 2012-11-05 19:22:56
 Writing application : mkvmerge v5.6.0 ('Kenya Kane') built on May 27 2012 16:44:04
 Writing library : libebml v1.2.3 + libmatroska v1.3.0

Video
 ID : 1
 Format : AVC
 Format/Info : Advanced Video Codec
 Format profile : High@L4.1
 Format settings, CABAC : Yes
 Format settings, ReFrames : 15 frames
 Codec ID : V_MPEG4/ISO/AVC
 Duration : 1h 46mn
 Bit rate : 3 130 Kbps
 Width : 1 120 pixels
 Height : 466 pixels
 Display aspect ratio : 2.40:1
 Frame rate : 23.976 fps
 Color space : YUV
 Chroma subsampling : 4:2:0
 Bit depth : 8 bits
 Scan type : Progressive
 Bits/(Pixel*Frame) : 0.250
 Stream size : 2.28 GiB (78%)
 Title : AVC 1120x466@23.976 fps ~3130 kBit/s 2-pass High 4.1
 Writing library : x264 core 122 r2184bm 5c85e0a
 Encoding settings : cabac=1 / ref=15 / deblock=1:-1:-1 / analyse=0x3:0x133 / me=umh / subme=10 / psy=1 / psy_rd=0.90:0.01 / mixed_ref=1 / me_range=32 / chroma_me=1 / trellis=2 / 8x8dct=1 / cqm=0 / deadzone=21,11 / fast_pskip=0 / chroma_qp_offset=-3 / threads=6 / sliced_threads=0 / nr=0 / decimate=0 / interlaced=0 / bluray_compat=0 / constrained_intra=0 / bframes=12 / b_pyramid=2 / b_adapt=2 / b_bias=0 / direct=3 / weightb=1 / open_gop=0 / weightp=2 / keyint=250 / keyint_min=23 / scenecut=40 / intra_refresh=0 / rc=2pass / mbtree=0 / bitrate=3130 / ratetol=1.0 / qcomp=0.90 / qpmin=0 / qpmax=69 / qpstep=4 / cplxblur=20.0 / qblur=0.5 / ip_ratio=1.40 / pb_ratio=1.45 / aq=2:1.35
 Language : English
 Default : Yes
 Forced : No

Audio #1
 ID : 2
 Format : AC-3
 Format/Info : Audio Coding 3
 Mode extension : CM (complete main)
 Format settings, Endianness : Big
 Codec ID : A_AC3
 Duration : 1h 46mn
 Bit rate mode : Constant
 Bit rate : 384 Kbps
 Channel(s) : 6 channels
 Channel positions : Front: L C R, Side: L R, LFE
 Sampling rate : 48.0 KHz
 Bit depth : 16 bits
 Compression mode : Lossy
 Stream size : 294 MiB (10%)
 Title : Дубляж AC3 448 kBit/s 48 kHz 5.1 DD
 Language : Russian
 Default : Yes
 Forced : No

Audio #2
 ID : 3
 Format : AC-3
 Format/Info : Audio Coding 3
 Mode extension : CM (complete main)
 Format settings, Endianness : Big
 Codec ID : A_AC3
 Duration : 1h 46mn
 Bit rate mode : Constant
 Bit rate : 384 Kbps
 Channel(s) : 6 channels
 Channel positions : Front: L C R, Side: L R, LFE
 Sampling rate : 48.0 KHz
 Bit depth : 16 bits
 Compression mode : Lossy
 Stream size : 294 MiB (10%)
 Title : English AC3 448 kBit/s 48 kHz 5.1 DD
 Language : English
 Default : No
 Forced : No

Text #1
 ID : 4
 Format : UTF-8
 Codec ID : S_TEXT/UTF8
 Codec ID/Info : UTF-8 Plain Text
 Language : Russian
 Default : No
 Forced : No

Text #2
 ID : 5
 Format : UTF-8
 Codec ID : S_TEXT/UTF8
 Codec ID/Info : UTF-8 Plain Text
 Language : English
 Default : No
 Forced : No
Семпл: http://narod.ru/disk/63414792001.c8fe26fca53d3ff55dd44db06c5965c1/Mad%20Max%20Beyond%20Thunderdome%20(1)-002.mkv.html

Релиз группы:

picpicpic
Для увеличения картинки щелкните мышкой по превью

Этот торрент недоступен для скачивания без регистрации, однако доступен по публичной magnet-ссылке (источники с публичных трекеров). Перед использованием ссылки прочтите, пожалуйста Пользовательское соглашение, а также как можно дольше оставайтесь на раздаче! Для того, чтобы скачать сам торрент-файл (который видит больше источников), а также для того, чтобы поблагодарить релизера, вам необходимо зарегистрироваться. Если регистрироваться лень - вы можете также попробовать скачать релиз по нашим партнерским ссылкам ниже.

[underverse.su].t21244.torrent
Трекер: Зарегистрирован   [ 11.11.2012 22:46 ]  

Статус: проверено (by Паукан at 12.11.2012 07:00)
Поблагодарили: пока никто не поблагодарил...
Тип торрента: публичный - доступные источники с открытых трекеров: 
Размер: 3,77 GB (занимает 0,86 DVDR, для записи нужно 1 болванка DVDR/RW)
 
 
Похожие темы
Форум Тема Автор Торрент Отв. Посл. сооб.
Зарубежное кино [DVDRip, Low-Res HDRip, и т.д.] Безумный Макс 3: Под куполом грома / Mad Max Beyond Thunderdome (Джордж Миллер / George Miller, Джордж Огилве / George Ogilvie) [1985 г., боевик, приключения, BDRip] Dub + Original 90ytr90
9 | 0

0 | 1376

15

13.09.2013 15:21

Зарубежное кино [DVDRip, Low-Res HDRip, и т.д.] Безумный Макс: Дорога ярости / Mad Max: Fury Road (Джордж Миллер) [2015 г., боевик, фантастика, приключения, WEB-DLRip] AVO makkol
51 | 1

0 | 898

72

23.06.2015 15:35

Зарубежное кино [DVDRip, Low-Res HDRip, и т.д.] Безумный Макс: Дорога ярости / Mad Max: Fury Road (Джордж Миллер / George Miller) [2015 г., боевик, фантастика, приключения, HDRip] Dub Паукан
278 | 1

0 | 880

90

30.08.2015 11:45

Зарубежное кино [DVDRip, Low-Res HDRip, и т.д.] Безумный Макс: Дорога ярости / Mad Max: Fury Road (Джордж Миллер / George Miller) [2015 г., боевик, фантастика, приключения, BDRip-AVC] Dub Паукан
20 | 0

0 | 955

63

30.08.2015 11:48

Зарубежное кино [DVD / HDDVD / BD / Remux] Безумный Макс 2: Воин дороги / Mad Max 2 (Джордж Миллер / George Miller) [1981, Австралия, фантастика, боевик, триллер, приключения, Blu-ray Disc 1080p] [EUR] uzi2009
15 | 1

0 | 1295

7

01.08.2014 10:42

Зарубежное кино [HDDVDRip / BDRip / WEB-DL / HDTV 1080/720р] Безумный Макс: Трилогия / Mad Max: Trilogy (Джордж Миллер / George Miller) [1979-1985 г., боевик, триллер, приключения, BDRip 720p] 60 fps | Dub luis5
0 | 0

0 | 1332

27

05.09.2014 19:08

Зарубежное кино [HDDVDRip / BDRip / WEB-DL / HDTV 1080/720р] Безумный Макс: Дорога ярости / Mad Max: Fury Road (Джордж Миллер) [2015 г., боевик, фантастика, приключения, WEB-DL 1080p] AVO + Original makkol
70 | 0

0 | 1041

72

23.06.2015 15:48

Зарубежное кино [HDDVDRip / BDRip / WEB-DL / HDTV 1080/720р] Безумный Макс: Дорога ярости / Mad Max: Fury Road (Джордж Миллер) [2015 г., боевик, фантастика, приключения, BDRip 1080p] Dub + Original + Sub (Rus,Eng) Паукан
263 | 16

0 | 1009

79

30.08.2015 11:34

Зарубежное кино [HDDVDRip / BDRip / WEB-DL / HDTV 1080/720р] Безумный Макс: Дорога ярости / Mad Max: Fury Road (Джордж Миллер / George Miller) [2015 г., боевик, фантастика, приключения, BDRip 720p] Dub + Original + Sub (Rus,Eng) Паукан
67 | 0

0 | 730

23

30.08.2015 11:39

Короткометражные мультфильмы Безумный Мадагаскар / Madly Madagascar (Дэвид Сорен) [2013 г., мультфильм, короткометражка, DVDRip] DVO + Original Паукан
15 | 1

1 | 1637

61

04.02.2013 09:56


Яндекс.Метрика powered by Sphinx


В Н И М А Н И Е
Сайт не распространяет и не хранит электронные версии произведений, а лишь бесплатно и без коммерческой выгоды (не требуя взамен платы,
SMS и т.д.) предоставляет доступ к создаваемому пользователями каталогу ссылок на торрент-файлы, которые содержат только списки хеш-сумм.
Убедительная просьба с жалобами обращаться напрямую к пользователю, разместившему торрент файл.

Вверх