Loading...
Error

Индиана Джонс: Квадрология / Indiana Jones 1-4 (Стивен Спилберг) [1981, 1984, 1989, 2008 г., боевик, приключения, DVDRip] Dub + MVO

Статистика раздачи
Размер:  2,91 GB   |    Зарегистрирован:  4 года   |    Скачан:  2 раза

Полного источника не было: 3 года 10 месяцев

Сидов:  0  |  0 KB/s  ]   Личеров:  0  |  0 KB/s  ]

* - сиды/пиры с внешних источников

   
 
Автор Сообщение

sssr32 Пол:Муж

10-Ноя-2012 18:57

Индиана Джонс: Квадрология / Indiana Jones 1-4
Год выпуска: 1981
Жанр: боевик, приключения
Страна: США
Режиссер: Стивен Спилберг
В ролях: Харрисон Форд, Карен Аллен, Пол Фримен, Рональд Лейси, Джон Рис-Дэвис, Денхолм Эллиот, Альфред Молина, Вольф Калер, Энтони Хиггинс.
Сюжет фильма:
Известный археолог и специалист по оккультным наукам доктор Джонс получает опасное задание от правительства США. Он должен отправиться на поиски уникальной реликвии — священного Ковчега. Но Индиана и не подозревает, что аналогичный приказ уже получили тайные агенты Адольфа Гитлера… Этим потрясающим фильмом продюсер Джордж Лукас и режиссер Стивен Спилберг положили начало саги о странствиях благородного доктора Джонса по всевозможным уголкам земного шара.
Качество видео: DVDRip

Продолжительность: 01:55:13
Формат: avi
Видео: XviD, 688x288, 766 kbps
Аудио: русский, многоголосый закадровый [профессиональный], MP3 2.0, 128 kbps

Код:

General
Complete name                    : F:\Фильмы\Indiana_Jones_1-4\Indiana_Jones_i_iskateli_poteryannogo_kovchega.avi
Format                           : AVI
Format/Info                      : Audio Video Interleave
File size                        : 745 MiB
Duration                         : 1h 55mn
Overall bit rate                 : 904 Kbps
Writing application              : VirtualDubMod 1.6.0.0 SURROUND (build 2560/release)
Writing library                  : VirtualDubMod build 2560/release

Video
ID                               : 0
Format                           : MPEG-4 Visual
Format profile                   : Streaming Video@L1
Format settings, BVOP            : Yes
Format settings, QPel            : No
Format settings, GMC             : No warppoints
Format settings, Matrix          : Default (MPEG)
Codec ID                         : XVID
Codec ID/Hint                    : XviD
Duration                         : 1h 55mn
Bit rate                         : 766 Kbps
Width                            : 688 pixels
Height                           : 288 pixels
Display aspect ratio             : 2.35
Frame rate                       : 23.976 fps
Resolution                       : 24 bits
Colorimetry                      : 4:2:0
Scan type                        : Progressive
Bits/(Pixel*Frame)               : 0.161
Stream size                      : 632 MiB (85%)
Writing library                  : XviD 1.2.1 (UTC 2008-12-04)

Audio
ID                               : 1
Format                           : MPEG Audio
Format version                   : Version 1
Format profile                   : Layer 3
Codec ID                         : 55
Codec ID/Hint                    : MP3
Duration                         : 1h 55mn
Bit rate mode                    : Constant
Bit rate                         : 128 Kbps
Channel(s)                       : 2 channels
Sampling rate                    : 48.0 KHz
Resolution                       : 16 bits
Stream size                      : 105 MiB (14%)
Alignment                        : Aligned on interleaves
Interleave, duration             : 42 ms (1.00 video frame)
Interleave, preload duration     : 504 ms
Writing library                  : LAME3.97
Encoding settings                : -m s -V 4 -q 2 -lowpass 17 -b 128

picpicpic
Для увеличения картинки щелкните мышкой по превью
Год выпуска: 1984
Жанр: боевик, приключения
Страна: США
Режиссер: Стивен Спилберг
В ролях: Харрисон Форд, Кейт Кэпшоу, Джонатан Ке Кван, Амриш Пури, Рошан Сет, Филип Стоун, Рой Чяо, Дэвид Ип, Рик Янг, Цзю Чуака.
Сюжет фильма:
Вторая часть невероятных похождений прославленного археолога и искателя приключений Индианы Джонса. В этот раз бесстрашный доктор Джонс совершит путешествие в сердце Гималаев вместе с ресторанной певичкой Уилли Скотт и своим верным маленьким помощником Коротышкой. Здесь, среди величественных гор, археологу и его спутникам предстоит столкнуться кровавым культом поклонения древней Богине Смерти — Кали. Станет ли Индиана следующим несчастным, погибшим на жутком алтаре человеческих жертвоприношений, или ему, как всегда, удастся вырваться из цепких лап страха и разобраться со злодеями.
Качество видео: DVDRip

Продолжительность: 01:58:24
Формат: avi
Видео: XviD, 688x288, 741 kbps
Аудио: русский, многоголосый закадровый [профессиональный], MP3 2.0, 128 kbps

Код:

General
Complete name                    : F:\Фильмы\Indiana_Jones_1-4\Indiana_Jones_i_hram_sud'by.avi
Format                           : AVI
Format/Info                      : Audio Video Interleave
File size                        : 745 MiB
Duration                         : 1h 58mn
Overall bit rate                 : 879 Kbps
Writing application              : VirtualDubMod 1.5.10.2 (build 2540/release)
Writing library                  : VirtualDubMod build 2540/release

Video
ID                               : 0
Format                           : MPEG-4 Visual
Format profile                   : Streaming Video@L1
Format settings, BVOP            : Yes
Format settings, QPel            : No
Format settings, GMC             : No warppoints
Format settings, Matrix          : Default (MPEG)
Codec ID                         : XVID
Codec ID/Hint                    : XviD
Duration                         : 1h 58mn
Bit rate                         : 742 Kbps
Width                            : 688 pixels
Height                           : 288 pixels
Display aspect ratio             : 2.35
Frame rate                       : 23.976 fps
Resolution                       : 24 bits
Colorimetry                      : 4:2:0
Scan type                        : Progressive
Bits/(Pixel*Frame)               : 0.156
Stream size                      : 628 MiB (84%)
Writing library                  : XviD 1.2.1 (UTC 2008-12-04)

Audio
ID                               : 1
Format                           : MPEG Audio
Format version                   : Version 1
Format profile                   : Layer 3
Codec ID                         : 55
Codec ID/Hint                    : MP3
Duration                         : 1h 58mn
Bit rate mode                    : Constant
Bit rate                         : 128 Kbps
Channel(s)                       : 2 channels
Sampling rate                    : 48.0 KHz
Resolution                       : 16 bits
Stream size                      : 108 MiB (15%)
Alignment                        : Aligned on interleaves
Interleave, duration             : 42 ms (1.00 video frame)
Interleave, preload duration     : 504 ms
Writing library                  : LAME3.97
Encoding settings                : -m s -V 4 -q 2 -lowpass 17 -b 128

picpicpic
Для увеличения картинки щелкните мышкой по превью
Год выпуска: 1989
Жанр: боевик, приключения
Страна: США
Режиссер: Стивен Спилберг
В ролях: Харрисон Форд, Шон Коннери, Денхолм Эллиот, Элисон Дуди, Джон Рис-Дэвис, Джулиан Гловер, Ривер Феникс, Майкл Бирн, Кеворк Маликян.
Сюжет фильма:
Третья часть невероятных похождений прославленного археолога и искателя приключений Индианы Джонса. На этот раз бесстрашный Индиана разыскивает самую таинственную реликвию в истории человечества — Святой Грааль. В этом археологу помогает его отец — профессор Джонс старший. Теперь под бдительным оком своего отца и при помощи своих верных талисманов, неизменной шляпы и хлыста, Индиане предстоит совершить много благородных подвигов и потрясающих открытий. В новых странствиях храброму археологу доведется добыть чашу, которую держал в руках Иисус Христос и получить автограф… самого Адольфа Гитлера.
Качество видео: DVDRip

Продолжительность: 02:06:48
Формат: avi
Видео: XviD, 688x288, 684 kbps
Аудио: русский, многоголосый закадровый [профессиональный], MP3 2.0, 128 kbps

Код:

General
Complete name                    : F:\Фильмы\Indiana_Jones_1-4\Indiana_Jones_i_posledniy_krestovyu_pohod.avi
Format                           : AVI
Format/Info                      : Audio Video Interleave
File size                        : 745 MiB
Duration                         : 2h 6mn
Overall bit rate                 : 822 Kbps
Writing application              : VirtualDubMod 1.5.10.2 (build 2540/release)
Writing library                  : VirtualDubMod build 2540/release

Video
ID                               : 0
Format                           : MPEG-4 Visual
Format profile                   : Streaming Video@L1
Format settings, BVOP            : Yes
Format settings, QPel            : No
Format settings, GMC             : No warppoints
Format settings, Matrix          : Default (MPEG)
Codec ID                         : XVID
Codec ID/Hint                    : XviD
Duration                         : 2h 6mn
Bit rate                         : 684 Kbps
Width                            : 688 pixels
Height                           : 288 pixels
Display aspect ratio             : 2.35
Frame rate                       : 23.976 fps
Resolution                       : 24 bits
Colorimetry                      : 4:2:0
Scan type                        : Progressive
Bits/(Pixel*Frame)               : 0.144
Stream size                      : 621 MiB (83%)
Writing library                  : XviD 1.2.1 (UTC 2008-12-04)

Audio
ID                               : 1
Format                           : MPEG Audio
Format version                   : Version 1
Format profile                   : Layer 3
Codec ID                         : 55
Codec ID/Hint                    : MP3
Duration                         : 2h 6mn
Bit rate mode                    : Constant
Bit rate                         : 128 Kbps
Channel(s)                       : 2 channels
Sampling rate                    : 48.0 KHz
Resolution                       : 16 bits
Stream size                      : 116 MiB (16%)
Alignment                        : Aligned on interleaves
Interleave, duration             : 42 ms (1.00 video frame)
Interleave, preload duration     : 504 ms
Writing library                  : LAME3.97
Encoding settings                : -m s -V 4 -q 2 -lowpass 17 -b 128

picpicpic
Для увеличения картинки щелкните мышкой по превью
Год выпуска: 2008
Жанр: боевик, приключения
Страна: США
Режиссер: Стивен Спилберг
В ролях: Харрисон Форд, Кейт Бланшетт, Карен Аллен, Шайа ЛаБаф, Рэй Уинстон, Джон Хёрт, Джим Броудбент, Игорь Жижикин, Дмитрий Дьяченко, Илья Волох.
Сюжет фильма:
1957 год, разгар холодной войны. Советские солдаты, возглавляемые агентом Ириной Спалько, похищают Мэрион Рэйвенвуд — давнюю возлюбленную Индианы Джонса, ставя профессора перед выбором: бездействие и смерть Мэрион или помощь советской разведке в поисках легендарного Хрустального черепа в обмен на свободу женщины.
Качество видео: DVDRip

Продолжительность: 02:02:32
Формат: avi
Видео: XviD, 688x288, 713 kbps
Аудио: русский, дублированный, MP3 2.0, 128 kbps

Код:

General
Complete name                    : F:\Фильмы\Indiana_Jones_1-4\Indiana_Jones_i_korolevstvo_hrustalnogo_cherepa.avi
Format                           : AVI
Format/Info                      : Audio Video Interleave
File size                        : 746 MiB
Duration                         : 2h 2mn
Overall bit rate                 : 851 Kbps
Writing application              : VirtualDubMod 1.5.10.2 (build 2540/release)
Writing library                  : VirtualDubMod build 2540/release

Video
ID                               : 0
Format                           : MPEG-4 Visual
Format profile                   : Streaming Video@L1
Format settings, BVOP            : Yes
Format settings, QPel            : No
Format settings, GMC             : No warppoints
Format settings, Matrix          : Default (MPEG)
Codec ID                         : XVID
Codec ID/Hint                    : XviD
Duration                         : 2h 2mn
Bit rate                         : 714 Kbps
Width                            : 688 pixels
Height                           : 288 pixels
Display aspect ratio             : 2.35
Frame rate                       : 23.976 fps
Resolution                       : 24 bits
Colorimetry                      : 4:2:0
Scan type                        : Progressive
Bits/(Pixel*Frame)               : 0.150
Stream size                      : 626 MiB (84%)
Writing library                  : XviD 1.2.1 (UTC 2008-12-04)

Audio
ID                               : 1
Format                           : MPEG Audio
Format version                   : Version 1
Format profile                   : Layer 3
Codec ID                         : 55
Codec ID/Hint                    : MP3
Duration                         : 2h 2mn
Bit rate mode                    : Constant
Bit rate                         : 128 Kbps
Channel(s)                       : 2 channels
Sampling rate                    : 48.0 KHz
Resolution                       : 16 bits
Stream size                      : 112 MiB (15%)
Alignment                        : Aligned on interleaves
Interleave, duration             : 42 ms (1.00 video frame)
Interleave, preload duration     : 504 ms
Writing library                  : LAME3.97
Encoding settings                : -m s -V 4 -q 2 -lowpass 17 -b 128

picpicpic
Для увеличения картинки щелкните мышкой по превью

Этот торрент недоступен для скачивания без регистрации, однако доступен по публичной magnet-ссылке (источники с публичных трекеров). Перед использованием ссылки прочтите, пожалуйста Пользовательское соглашение, а также как можно дольше оставайтесь на раздаче! Для того, чтобы скачать сам торрент-файл (который видит больше источников), а также для того, чтобы поблагодарить релизера, вам необходимо зарегистрироваться. Если регистрироваться лень - вы можете также попробовать скачать релиз по нашим партнерским ссылкам ниже.

[underverse.su].t21215.torrent
Трекер: Зарегистрирован   [ 10.11.2012 18:57 ]  

Статус: проверено (by Паукан at 11.11.2012 07:56)
Поблагодарили: 3 человека
Тип торрента: публичный - доступные источники с открытых трекеров: 
Размер: 2,91 GB (занимает 2/3 DVDR, для записи нужно 1 болванка DVDR/RW)
 
 
Похожие темы
Форум Тема Автор Торрент Отв. Посл. сооб.
Зарубежное кино [DVDRip, Low-Res HDRip, и т.д.] Индиана Джонс и последний крестовый поход / Indiana Jones and the Last Crusade (Стивен Спилберг / Steven Spielberg) [1989 г., боевик, приключения, HDRip] MVO ("Киномания") 90ytr90
9 | 0

0 | 520

2

11.08.2016 18:32

Зарубежное кино [HDDVDRip / BDRip / WEB-DL / HDTV 1080/720р] Индиана Джонс: Квадрология / Indiana Jones: The Complete Adventures (Стивен Спилберг) [1981-2008 г., боевик, приключения, BDRip 720p] MVO/Dub + Ukr + 2xAVO + Original + Sub (Rus, Eng) 90ytr90
6 | 3

5 | 2224

17

11.10.2013 19:22

Зарубежное кино [HDDVDRip / BDRip / WEB-DL / HDTV 1080/720р] Индиана Джонс: В поисках утраченного ковчега / Raiders of the Lost Ark (Стивен Спилберг / Steven Spielberg) [1981, боевик, приключения, BDRip 1080p] 5xMVO + 2xAVO + Original (Eng) + Subs uzi2009
25 | 6

0 | 1191

3

17.02.2014 11:58

* Архив Индиана Джонс: В поисках утраченного ковчега / Raiders of the Lost Ark (Стивен Спилберг) [1981 г., приключения, боевик, DVDRip] kid8177

1 | 700

29.08.2010 23:52

* Архив Индиана Джонс и Храм Судьбы / Indiana Jones and the Temple of Doom (Стивен Спилберг) [1984 г., боевик, приключения, DVDRip] kid8177

1 | 843

29.08.2010 23:52

* Архив Индиана Джонс и последний крестовый поход / Indiana Jones and the Last Crusade (Стивен Спилберг) [1989 г., боевик, приключения, DVDRip] kid8177

1 | 741

29.08.2010 23:52

* Архив Индиана Джонс и Королевство xрустального черепа / Indiana Jones and the Kingdom of the Crystal Skull (Стивен Спилберг) [2008 г., Боевик, приключения, DVDRip] aweb

1 | 760

29.08.2010 23:52

Garnett Пол:Муж

11-Ноя-2012 07:35

1. Заголовок
1.1 Общий вид: Русское название / Оригинальное название (Год) Качество Перевод
Общие правила и рекомендации оформления и раздачи релизов «Видео»

Яндекс.Метрика powered by Sphinx


В Н И М А Н И Е
Сайт не распространяет и не хранит электронные версии произведений, а лишь бесплатно и без коммерческой выгоды (не требуя взамен платы,
SMS и т.д.) предоставляет доступ к создаваемому пользователями каталогу ссылок на торрент-файлы, которые содержат только списки хеш-сумм.
Убедительная просьба с жалобами обращаться напрямую к пользователю, разместившему торрент файл.

Вверх