Loading...
Error

Король Нью-Йорка / King of New York (Абель Феррара) [1990 г., боевик, драма, криминал, BDRip-AVC] 6xRus + Original

Статистика раздачи
Размер:  4,97 GB   |    Зарегистрирован:  4 года   |    Скачан:  5 раз

Полного источника не было: 4 месяца

Сидов:  0  |  0 KB/s  ]   Личеров:  0  |  0 KB/s  ]

* - сиды/пиры с внешних источников

   
 
Автор Сообщение

garry Пол:Муж

10-Ноя-2012 17:07

Король Нью-Йорка / King of New York


Год выпуска: 1990
Жанр: боевик, драма, криминал
Страна: Италия , США , Великобритания
Режиссер: Абель Феррара
В ролях: Кристофер Уокен, Дэвид Карузо, Лоренс Фишбёрн, Виктор Арго, Уэсли Снайпс, Джанет Джулиан, Джои Чин, Джанкарло Эспозито, Пол Кэлдерон, Стив Бушеми
Сюжет фильма:
Выйдя из тюрьмы, гангстер Фрэнк Уайт объявляет, что берет под свой контроль всю торговлю наркотиками в Нью-Йорке и уничтожит всех, кто встанет на его пути. Нью-Йорк становится ареной кровавых разборок за рынок сбыта наркотиков стоимостью более чем в миллиард долларов.

Фрэнк и его банда, состоящая в основном из черных, методично уничтожает боссов колумбийских, итальянских и китайских группировок. В своей штаб-квартире в роскошных апартаментах отеля Плаза под защитой двух прелестных телохранительниц Фрэнк провозглашает себя королем Нью-Йорка. Полиция, неспособная справиться с Фрэнком, объявляет ему настоящую войну…

  • Мировая премьера: 18 июля 1990


Качество видео: BDRip-AVC

Продолжительность: 01:43:11
Формат: MKV
Видео: x264, 1136x638, 4337 kbps
Аудио #1: русский, многоголосый закадровый [профессиональный, Cinema Prestige], AC3 5.1, 384 kbps
Аудио #2: русский, двухголосый закадровый [профессиональный, Гланц и Королева], AC3 5.1, 448 kbps
Аудио #3: русский, одноголосый закадровый [авторский, Михалёв], AC3 5.1, 448 kbps
Аудио #4: английский, оригинал, AC3 5.1, 448 kbps
Аудио #5: русский, многоголосый закадровый [профессиональный, Екатеринбург арт], AC3 2.0, 192 kbps (отдельно)
Аудио #6: русский, одноголосый закадровый [авторский, Живов], AC3 5.1, 448 kbps (отдельно)
Аудио #7: русский, одноголосый закадровый [авторский, Прямостанов], AC3 2.0, 192 kbps (отдельно)
Субтитры #1: тип: вшитые отключаемые, русский, формат: SRT
Субтитры #2: тип: вшитые отключаемые, английский, формат: SRT

Код:

General
 Unique ID : 250382667595773472788721954323368036190 (0xBC5DF29CFAE503AAB1A1926AA038C75E)
 Complete name : C:\Video\king\King of New York.mkv
 Format : Matroska
 Format version : Version 2
 File size : 4.37 GiB
 Duration : 1h 43mn
 Overall bit rate : 6 064 Kbps
 Encoded date : UTC 2012-11-03 13:25:27
 Writing application : mkvmerge v5.6.0 ('Kenya Kane') built on May 27 2012 16:44:04
 Writing library : libebml v1.2.3 + libmatroska v1.3.0

Video
 ID : 1
 Format : AVC
 Format/Info : Advanced Video Codec
 Format profile : High@L4.1
 Format settings, CABAC : Yes
 Format settings, ReFrames : 11 frames
 Codec ID : V_MPEG4/ISO/AVC
 Duration : 1h 43mn
 Bit rate : 4 337 Kbps
 Width : 1 136 pixels
 Height : 638 pixels
 Display aspect ratio : 16:9
 Frame rate : 23.976 fps
 Color space : YUV
 Chroma subsampling : 4:2:0
 Bit depth : 8 bits
 Scan type : Progressive
 Bits/(Pixel*Frame) : 0.250
 Stream size : 3.04 GiB (70%)
 Title : AVC 1136x638@23.976 fps ~4337 kBit/s 2-pass High 4.1
 Writing library : x264 core 122 r2184bm 5c85e0a
 Encoding settings : cabac=1 / ref=11 / deblock=1:-2:-2 / analyse=0x3:0x133 / me=umh / subme=10 / psy=1 / psy_rd=1.00:0.15 / mixed_ref=1 / me_range=40 / chroma_me=1 / trellis=2 / 8x8dct=1 / cqm=0 / deadzone=21,11 / fast_pskip=0 / chroma_qp_offset=-3 / threads=6 / sliced_threads=0 / nr=0 / decimate=0 / interlaced=0 / bluray_compat=0 / constrained_intra=0 / bframes=8 / b_pyramid=2 / b_adapt=2 / b_bias=0 / direct=3 / weightb=1 / open_gop=0 / weightp=2 / keyint=250 / keyint_min=23 / scenecut=40 / intra_refresh=0 / rc=2pass / mbtree=0 / bitrate=4337 / ratetol=1.0 / qcomp=0.90 / qpmin=0 / qpmax=69 / qpstep=4 / cplxblur=20.0 / qblur=0.5 / ip_ratio=1.40 / pb_ratio=1.25 / aq=2:0.85
 Language : English
 Default : Yes
 Forced : No

Audio #1
 ID : 2
 Format : AC-3
 Format/Info : Audio Coding 3
 Mode extension : CM (complete main)
 Format settings, Endianness : Big
 Codec ID : A_AC3
 Duration : 1h 43mn
 Bit rate mode : Constant
 Bit rate : 384 Kbps
 Channel(s) : 6 channels
 Channel positions : Front: L C R, Side: L R, LFE
 Sampling rate : 48.0 KHz
 Bit depth : 16 bits
 Compression mode : Lossy
 Stream size : 283 MiB (6%)
 Title : MVO «Cinema Prestige» AC3 384 kBit/s 48 kHz 5.1 DD
 Language : Russian
 Default : Yes
 Forced : No

Audio #2
 ID : 3
 Format : AC-3
 Format/Info : Audio Coding 3
 Mode extension : CM (complete main)
 Format settings, Endianness : Big
 Codec ID : A_AC3
 Duration : 1h 43mn
 Bit rate mode : Constant
 Bit rate : 448 Kbps
 Channel(s) : 6 channels
 Channel positions : Front: L C R, Side: L R, LFE
 Sampling rate : 48.0 KHz
 Bit depth : 16 bits
 Compression mode : Lossy
 Stream size : 331 MiB (7%)
 Title : DVO Гланц и Королева AC3 448 kBit/s 48 kHz 5.1 DD
 Language : Russian
 Default : No
 Forced : No

Audio #3
 ID : 4
 Format : AC-3
 Format/Info : Audio Coding 3
 Mode extension : CM (complete main)
 Format settings, Endianness : Big
 Codec ID : A_AC3
 Duration : 1h 43mn
 Bit rate mode : Constant
 Bit rate : 448 Kbps
 Channel(s) : 6 channels
 Channel positions : Front: L C R, Side: L R, LFE
 Sampling rate : 48.0 KHz
 Bit depth : 16 bits
 Compression mode : Lossy
 Stream size : 331 MiB (7%)
 Title : AVO А. Михалёв AC3 448 kBit/s 48 kHz 5.1 DD
 Language : Russian
 Default : No
 Forced : No

Audio #4
 ID : 5
 Format : AC-3
 Format/Info : Audio Coding 3
 Mode extension : CM (complete main)
 Format settings, Endianness : Big
 Codec ID : A_AC3
 Duration : 1h 43mn
 Bit rate mode : Constant
 Bit rate : 448 Kbps
 Channel(s) : 6 channels
 Channel positions : Front: L C R, Side: L R, LFE
 Sampling rate : 48.0 KHz
 Bit depth : 16 bits
 Compression mode : Lossy
 Stream size : 331 MiB (7%)
 Title : English AC3 448 kBit/s 48 kHz 5.1 DD
 Language : English
 Default : No
 Forced : No

Text #1
 ID : 6
 Format : UTF-8
 Codec ID : S_TEXT/UTF8
 Codec ID/Info : UTF-8 Plain Text
 Language : Russian
 Default : No
 Forced : No

Text #2
 ID : 7
 Format : UTF-8
 Codec ID : S_TEXT/UTF8
 Codec ID/Info : UTF-8 Plain Text
 Language : English
 Default : No
 Forced : No
Семпл: http://narod.ru/disk/63315089001.66f61e2f6930ccb375290c1120d63bd3/King%20of%20New%20York%20(1)-002.mkv.html

Релиз группы:

picpicpic
Для увеличения картинки щелкните мышкой по превью

Этот торрент недоступен для скачивания без регистрации, однако доступен по публичной magnet-ссылке (источники с публичных трекеров). Перед использованием ссылки прочтите, пожалуйста Пользовательское соглашение, а также как можно дольше оставайтесь на раздаче! Для того, чтобы скачать сам торрент-файл (который видит больше источников), а также для того, чтобы поблагодарить релизера, вам необходимо зарегистрироваться. Если регистрироваться лень - вы можете также попробовать скачать релиз по нашим партнерским ссылкам ниже.

[underverse.su].t21214.torrent
Трекер: Зарегистрирован   [ 10.11.2012 17:07 ]  

Статус: проверено (by Garnett at 11.11.2012 15:02)
Поблагодарили: пока никто не поблагодарил...
Тип торрента: публичный - доступные источники с открытых трекеров: 
Размер: 4,97 GB (занимает 1,13 DVDR, для записи нужно 2 болванки DVDR/RW)
 
 

Коча Пол:Муж

19-Ноя-2012 07:51

Фильм вааще класс!!!!! :good:

Яндекс.Метрика powered by Sphinx


В Н И М А Н И Е
Сайт не распространяет и не хранит электронные версии произведений, а лишь бесплатно и без коммерческой выгоды (не требуя взамен платы,
SMS и т.д.) предоставляет доступ к создаваемому пользователями каталогу ссылок на торрент-файлы, которые содержат только списки хеш-сумм.
Убедительная просьба с жалобами обращаться напрямую к пользователю, разместившему торрент файл.

Вверх