Loading...
Error

Морские котики / Navy Seals (Льюис Тиг) [1990 г., боевик, триллер, приключения, BDRip-AVC] 5хRus + Original

Статистика раздачи
Размер:  3,21 GB   |    Зарегистрирован:  4 года   |    Скачан:  6 раз

Полного источника не было: 10 месяцев

Сидов:  0  |  0 KB/s  ]   Личеров:  0  |  0 KB/s  ]

* - сиды/пиры с внешних источников

   
 
Автор Сообщение

garry Пол:Муж

10-Ноя-2012 16:47

Морские котики / Navy Seals


Год выпуска: 1990
Жанр: боевик, триллер, приключения
Страна: США
Режиссер: Льюис Тиг
В ролях: Чарли Шин, Майкл Бин, Джоэнн Уэлли, Рик Россович, Сирил О’Райлли, Билл Пэкстон, Деннис Хейсбёрт, Пол Санчез, Николас Кади, Рональд Дж. Джозеф
Сюжет фильма:
Выполняя тайную операцию на Ближнем Востоке, спецназ «Морские котики» обнаруживает, что в руки одного из самых опасных террористов попали боевые ракеты. «Морские котики» — элитное секретное подразделение американских ВМС, отличающееся невероятной спаянностью и выучкой. Отряд возглавляет лейтенант Курран, дисциплинированный, хладнокровный и уравновешенный офицер.

Его заместитель и друг младший лейтенант Хоукинс любит очертя голову бросаться навстречу любой опасности. Перед отрядом поставлена задача: уничтожить ракеты, прежде чем террористы успеют пустить их в ход. база террористов, на которой спрятаны ракеты, находится в подвале полуразрушенной школы в Бейруте.

В ночной тьме вертолет с «Морскими котиками» на борту взмывает в воздух. Задание почти невыполнимо, но к рассвету все должно быть кончено…

  • Мировая премьера: 20 июля 1990


Качество видео: BDRip-AVC

Продолжительность: 01:53:35
Формат: MKV
Видео: x264, 1040x562, 2387 kbps
Аудио #1: русский, двухголосый закадровый [профессиональный, HTB], AC3 2.0, 192 kbps
Аудио #2: русский, многоголосый закадровый [профессиональный, HTB], AC3 2.0, 192 kbps
Аудио #3: русский, одноголосый закадровый [авторский, Гаврилов], AC3 5.1, 448 kbps
Аудио #4: английский, оригинал, AC3 5.1, 448 kbps
Аудио #5: русский, двухголосый закадровый [профессиональный, Лазер Видео], AC3 2.0, 192 kbps (отдельно)
Аудио #6: русский, двухголосый закадровый [профессиональный, SDI Media], AC3 2.0, 192 kbps (отдельно)
Субтитры: тип: вшитые отключаемые, английский, формат: SRT

Код:

General
 Unique ID : 234794212381467088153564514546937248620 (0xB0A3B86EB7E79EEBA7ADF423DD803B6C)
 Complete name : F:\FILMS\___ - R - ___\Navy Seals\Navy Seals.mkv
 Format : Matroska
 Format version : Version 2
 File size : 2.91 GiB
 Duration : 1h 53mn
 Overall bit rate : 3 667 Kbps
 Encoded date : UTC 2012-10-31 19:15:25
 Writing application : mkvmerge v5.6.0 ('Kenya Kane') built on May 27 2012 16:44:04
 Writing library : libebml v1.2.3 + libmatroska v1.3.0

Video
 ID : 1
 Format : AVC
 Format/Info : Advanced Video Codec
 Format profile : High@L4.1
 Format settings, CABAC : Yes
 Format settings, ReFrames : 14 frames
 Codec ID : V_MPEG4/ISO/AVC
 Duration : 1h 53mn
 Bit rate : 2 387 Kbps
 Width : 1 040 pixels
 Height : 562 pixels
 Display aspect ratio : 1.85:1
 Frame rate : 23.976 fps
 Color space : YUV
 Chroma subsampling : 4:2:0
 Bit depth : 8 bits
 Scan type : Progressive
 Bits/(Pixel*Frame) : 0.170
 Stream size : 1.84 GiB (63%)
 Title : AVC 1040x562@23,976 fps ~2387 kBit/s 2-pass High 4.1
 Writing library : x264 core 122 r2184bm 5c85e0a
 Encoding settings : cabac=1 / ref=14 / deblock=1:-1:-1 / analyse=0x3:0x133 / me=umh / subme=10 / psy=1 / psy_rd=1.05:0.05 / mixed_ref=1 / me_range=48 / chroma_me=1 / trellis=2 / 8x8dct=1 / cqm=0 / deadzone=21,11 / fast_pskip=0 / chroma_qp_offset=-3 / threads=6 / sliced_threads=0 / nr=0 / decimate=0 / interlaced=0 / bluray_compat=0 / constrained_intra=0 / bframes=10 / b_pyramid=2 / b_adapt=2 / b_bias=0 / direct=3 / weightb=1 / open_gop=0 / weightp=2 / keyint=250 / keyint_min=23 / scenecut=40 / intra_refresh=0 / rc=2pass / mbtree=0 / bitrate=2387 / ratetol=1.0 / qcomp=0.90 / qpmin=0 / qpmax=69 / qpstep=4 / cplxblur=20.0 / qblur=0.5 / ip_ratio=1.40 / pb_ratio=1.35 / aq=2:1.15
 Language : English
 Default : Yes
 Forced : No

Audio #1
 ID : 2
 Format : AC-3
 Format/Info : Audio Coding 3
 Mode extension : CM (complete main)
 Format settings, Endianness : Big
 Codec ID : A_AC3
 Duration : 1h 53mn
 Bit rate mode : Constant
 Bit rate : 192 Kbps
 Channel(s) : 2 channels
 Channel positions : Front: L R
 Sampling rate : 48.0 KHz
 Bit depth : 16 bits
 Compression mode : Lossy
 Stream size : 156 MiB (5%)
 Title : DVO HTB AC3 192 kBit/s 48 kHz 2.0 DD
 Language : Russian
 Default : Yes
 Forced : No

Audio #2
 ID : 3
 Format : AC-3
 Format/Info : Audio Coding 3
 Mode extension : CM (complete main)
 Format settings, Endianness : Big
 Codec ID : A_AC3
 Duration : 1h 53mn
 Bit rate mode : Constant
 Bit rate : 192 Kbps
 Channel(s) : 2 channels
 Channel positions : Front: L R
 Sampling rate : 48.0 KHz
 Bit depth : 16 bits
 Compression mode : Lossy
 Stream size : 156 MiB (5%)
 Title : MVO HTB AC3 192 kBit/s 48 kHz 2.0 DD
 Language : Russian
 Default : No
 Forced : No

Audio #3
 ID : 4
 Format : AC-3
 Format/Info : Audio Coding 3
 Mode extension : CM (complete main)
 Format settings, Endianness : Big
 Codec ID : A_AC3
 Duration : 1h 53mn
 Bit rate mode : Constant
 Bit rate : 448 Kbps
 Channel(s) : 6 channels
 Channel positions : Front: L C R, Side: L R, LFE
 Sampling rate : 48.0 KHz
 Bit depth : 16 bits
 Compression mode : Lossy
 Stream size : 364 MiB (12%)
 Title : AVO Гаврилов AC3 448 kBit/s 48 kHz 5.1 DD
 Language : Russian
 Default : No
 Forced : No

Audio #4
 ID : 5
 Format : AC-3
 Format/Info : Audio Coding 3
 Mode extension : CM (complete main)
 Format settings, Endianness : Big
 Codec ID : A_AC3
 Duration : 1h 53mn
 Bit rate mode : Constant
 Bit rate : 448 Kbps
 Channel(s) : 6 channels
 Channel positions : Front: L C R, Side: L R, LFE
 Sampling rate : 48.0 KHz
 Bit depth : 16 bits
 Compression mode : Lossy
 Stream size : 364 MiB (12%)
 Title : English AC3 448 kBit/s 48 kHz 5.1 DD
 Language : English
 Default : No
 Forced : No

Text
 ID : 6
 Format : UTF-8
 Codec ID : S_TEXT/UTF8
 Codec ID/Info : UTF-8 Plain Text
 Language : English
 Default : No
 Forced : No
Семпл: http://narod.ru/disk/63295012001.d45c6e7b64b8422db2f678d82d0cfa97/Navy%20Seals%20(1)-002.mkv.html

Релиз группы:

picpicpic
Для увеличения картинки щелкните мышкой по превью

Этот торрент недоступен для скачивания без регистрации, однако доступен по публичной magnet-ссылке (источники с публичных трекеров). Перед использованием ссылки прочтите, пожалуйста Пользовательское соглашение, а также как можно дольше оставайтесь на раздаче! Для того, чтобы скачать сам торрент-файл (который видит больше источников), а также для того, чтобы поблагодарить релизера, вам необходимо зарегистрироваться. Если регистрироваться лень - вы можете также попробовать скачать релиз по нашим партнерским ссылкам ниже.

[underverse.su].t21213.torrent
Трекер: Зарегистрирован   [ 10.11.2012 16:47 ]  

Статус: проверено (by Garnett at 11.11.2012 07:36)
Поблагодарили: 1 человек
Тип торрента: публичный - доступные источники с открытых трекеров: 
Размер: 3,21 GB (занимает 0,73 DVDR, для записи нужно 1 болванка DVDR/RW)
 
 

Яндекс.Метрика powered by Sphinx


В Н И М А Н И Е
Сайт не распространяет и не хранит электронные версии произведений, а лишь бесплатно и без коммерческой выгоды (не требуя взамен платы,
SMS и т.д.) предоставляет доступ к создаваемому пользователями каталогу ссылок на торрент-файлы, которые содержат только списки хеш-сумм.
Убедительная просьба с жалобами обращаться напрямую к пользователю, разместившему торрент файл.

Вверх