Loading...
Error

Ивановъ (Вадим Дубровицкий) [2010 г., мелодрама, комедия, DVDRip-AVC] Original

Статистика раздачи
Размер:  2,91 GB   |    Зарегистрирован:  4 года   |    Скачан:  5 раз

Полного источника не было: 11 месяцев

Сидов:  0  |  0 KB/s  ]   Личеров:  0  |  0 KB/s  ]

* - сиды/пиры с внешних источников

   
 
Автор Сообщение

garry Пол:Муж

10-Ноя-2012 16:15

Ивановъ


Год выпуска: 2010
Жанр: мелодрама, комедия
Страна: Россия
Режиссер: Вадим Дубровицкий
В ролях: Алексей Серебряков, Анна Дубровская, Эдуард Марцевич, Богдан Ступка, Екатерина Васильева, Иван Волков, Евгения Добровольская, Остап Ступка, Владимир Ильин, Ольга Волкова
Сюжет фильма:
История русского интеллигента 19 века, задыхающегося среди тонущего в пошлости общества. Главный герой этой истории — Иванов — человек, который приносит несчастье всем, кто его окружает. Его присутствие, будто, необъяснимая напасть, рушит чужие судьбы. Он и сам с собой не в мире, но обрести гармонию ему не дано. Вы увидите новое в хрестоматийных персонажах, вы удивитесь, что не думали об этом раньше, наконец, вы будете просто ошарашены финалом.

  • Российская премьера: 10 марта 2011, «RUSCICO»

Качество видео: DVDRip-AVC

Продолжительность: 02:47:27
Формат: MKV
Видео: x264, 720x576@1024x576, 2297 kbps
Аудио: русский, оригинал, AC3 2.0, 192 kbps

Код:

General
 Unique ID                                : 241405037490061684877673776296900185991 (0xB59CEB46639FD5C293605F0CD4E44F87)
 Complete name                            : D:\VIDEO\Ивановъ.2009.DVDRip-AVC.mkv
 Format                                   : Matroska
 Format version                           : Version 2
 File size                                : 2.91 GiB
 Duration                                 : 2h 47mn
 Overall bit rate                         : 2 491 Kbps
 Movie name                               : Ивановъ 2009
 Encoded date                             : UTC 2012-11-02 09:18:55
 Writing application                      : mkvmerge v5.8.0 ('No Sleep / Pillow') built on Sep  2 2012 15:37:04
 Writing library                          : libebml v1.2.3 + libmatroska v1.3.0
 Attachment                               : Yes

Video
 ID                                       : 1
 Format                                   : AVC
 Format/Info                              : Advanced Video Codec
 Format profile                           : High@L4.0
 Format settings, CABAC                   : Yes
 Format settings, ReFrames                : 10 frames
 Codec ID                                 : V_MPEG4/ISO/AVC
 Duration                                 : 2h 47mn
 Bit rate                                 : 2 297 Kbps
 Width                                    : 720 pixels
 Height                                   : 576 pixels
 Display aspect ratio                     : 16:9
 Frame rate                               : 25.000 fps
 Standard                                 : PAL
 Color space                              : YUV
 Chroma subsampling                       : 4:2:0
 Bit depth                                : 8 bits
 Scan type                                : Progressive
 Bits/(Pixel*Frame)                       : 0.222
 Stream size                              : 2.63 GiB (90%)
 Title                                    : Ивановъ
 Writing library                          : x264 core 128 r2216kMod 198a7ea
 Encoding settings                        : cabac=1 / ref=10 / deblock=1:-2:-1 / analyse=0x3:0x133 / me=umh / subme=11 / psy=1 / fade_compensate=0.00 / psy_rd=1.05:0.00 / mixed_ref=1 / me_range=32 / chroma_me=1 / trellis=2 / 8x8dct=1 / cqm=0 / deadzone=21,11 / fast_pskip=0 / chroma_qp_offset=-2 / threads=6 / lookahead_threads=1 / sliced_threads=0 / nr=0 / decimate=0 / interlaced=0 / bluray_compat=0 / constrained_intra=0 / bframes=8 / b_pyramid=2 / b_adapt=2 / b_bias=0 / direct=3 / weightb=1 / open_gop=0 / weightp=2 / keyint=250 / keyint_min=25 / scenecut=40 / intra_refresh=0 / rc_lookahead=60 / rc=2pass / mbtree=0 / bitrate=2297 / ratetol=1.0 / qcomp=0.80 / qpmin=0 / qpmax=69 / qpstep=4 / cplxblur=20.0 / qblur=0.5 / vbv_maxrate=25000 / vbv_bufsize=31250 / nal_hrd=none / ip_ratio=1.15 / pb_ratio=1.10 / aq=2:0.80
 Language                                 : Russian
 Default                                  : Yes
 Forced                                   : No
 Matrix coefficients                      : BT.470-6 System B, BT.470-6 System G, BT.601-6 625, BT.1358 625, BT.1700 625 PAL, BT.1700 625 SECAM, IEC 61966-2-4 601

Audio
 ID                                       : 2
 Format                                   : AC-3
 Format/Info                              : Audio Coding 3
 Mode extension                           : CM (complete main)
 Format settings, Endianness              : Big
 Codec ID                                 : A_AC3
 Duration                                 : 2h 47mn
 Bit rate mode                            : Constant
 Bit rate                                 : 192 Kbps
 Channel(s)                               : 2 channels
 Channel positions                        : Front: L R
 Sampling rate                            : 48.0 KHz
 Bit depth                                : 16 bits
 Compression mode                         : Lossy
 Stream size                              : 230 MiB (8%)
 Title                                    : Оригинал
 Language                                 : Russian
 Default                                  : Yes
 Forced                                   : No

Menu
 00:00:00.000                             : ru:Chapter 1
 00:20:18.280                             : ru:Chapter 2
 00:40:11.600                             : ru:Chapter 3
 01:01:20.400                             : ru:Chapter 4
 01:21:22.080                             : ru:Chapter 5
 01:43:03.360                             : ru:Chapter 6
 02:04:28.800                             : ru:Chapter 7
 02:24:55.480                             : ru:Chapter 8
Семпл: narod.ru

Релиз группы:

picpicpic
Для увеличения картинки щелкните мышкой по превью

Этот торрент недоступен для скачивания без регистрации, однако доступен по публичной magnet-ссылке (источники с публичных трекеров). Перед использованием ссылки прочтите, пожалуйста Пользовательское соглашение, а также как можно дольше оставайтесь на раздаче! Для того, чтобы скачать сам торрент-файл (который видит больше источников), а также для того, чтобы поблагодарить релизера, вам необходимо зарегистрироваться. Если регистрироваться лень - вы можете также попробовать скачать релиз по нашим партнерским ссылкам ниже.

[underverse.su].t21211.torrent
Трекер: Зарегистрирован   [ 10.11.2012 16:15 ]  

Статус: проверено (by Garnett at 11.11.2012 07:01)
Поблагодарили: 1 человек
Тип торрента: публичный - доступные источники с открытых трекеров: 
Размер: 2,91 GB (занимает 2/3 DVDR, для записи нужно 1 болванка DVDR/RW)
 
 

Яндекс.Метрика powered by Sphinx


В Н И М А Н И Е
Сайт не распространяет и не хранит электронные версии произведений, а лишь бесплатно и без коммерческой выгоды (не требуя взамен платы,
SMS и т.д.) предоставляет доступ к создаваемому пользователями каталогу ссылок на торрент-файлы, которые содержат только списки хеш-сумм.
Убедительная просьба с жалобами обращаться напрямую к пользователю, разместившему торрент файл.

Вверх