Loading...
Error

Буйно помешанные / Stir Crazy (Сидни Пуатье) [1980 г., комедия, криминал, BDRip-AVC] MVO + AVO + Original

Статистика раздачи
Размер:  2,91 GB   |    Зарегистрирован:  4 года   |    Скачан:  6 раз

Полного источника не было: 11 месяцев

Сидов:  0  |  0 KB/s  ]   Личеров:  0  |  0 KB/s  ]

* - сиды/пиры с внешних источников

   
 
Автор Сообщение

garry Пол:Муж

10-Ноя-2012 15:28

Буйно помешанные / Stir Crazy


Год выпуска: 1980
Жанр: комедия, криминал
Страна: США
Режиссер: Сидни Пуатье
В ролях: Джин Уайлдер, Ричард Прайор, Георг Стэнфорд Браун, ДжоБет Уильямс, Мигель Анхел Суарес, Крэйг Т. Нельсон, Бэрри Корбин, Чарльз Уэлдон, Николас Костер, Джоэл Брукс
Сюжет фильма:
Приятели, Скип и Харри, по ложному обвинению в ограблении банка были приговорены к солидному сроку заключения. У друзей возникают большие трудности с адаптацией к непривычным условиям тюрьмы.

И так бы они и чувствовали себя изгоями и неудачниками среди остальных заключённых, но однажды их охраннику приходит блестящая идея, как использовать Скипа и его таланты на предстоящем тюремном родео. Харри будет на подхвате.

  • Мировая премьера: 12 декабря 1980


Качество видео: BDRip-AVC

Продолжительность: 01:51:03
Формат: MKV
Видео: x264, 1008x546, 3176 kbps
Аудио #1: русский, многоголосый закадровый [профессиональный, Первый канал], AC3 2.0, 192 kbps
Аудио #2: русский, одноголосый закадровый [авторский, Михалёв], AC3 2.0, 192 kbps
Аудио #3: английский, оригинал, AC3 2.0, 192 kbps

Код:

General
 Unique ID : 175825435482079399500995327150803981145 (0x8446BF431FD548D3A9EDDF4454A91359)
 Complete name : F:\FILMS\___ - R - ___\Stir Crazy.mkv
 Format : Matroska
 Format version : Version 2
 File size : 2.91 GiB
 Duration : 1h 51mn
 Overall bit rate : 3 754 Kbps
 Encoded date : UTC 2012-10-29 20:23:59
 Writing application : mkvmerge v5.6.0 ('Kenya Kane') built on May 27 2012 16:44:04
 Writing library : libebml v1.2.3 + libmatroska v1.3.0

Video
 ID : 1
 Format : AVC
 Format/Info : Advanced Video Codec
 Format profile : High@L4.1
 Format settings, CABAC : Yes
 Format settings, ReFrames : 14 frames
 Codec ID : V_MPEG4/ISO/AVC
 Duration : 1h 51mn
 Bit rate : 3 176 Kbps
 Width : 1 008 pixels
 Height : 546 pixels
 Display aspect ratio : 1.85:1
 Frame rate : 23.976 fps
 Color space : YUV
 Chroma subsampling : 4:2:0
 Bit depth : 8 bits
 Scan type : Progressive
 Bits/(Pixel*Frame) : 0.241
 Stream size : 2.41 GiB (83%)
 Title : AVC 1008x546@23.976 fps ~3176 kBit/s 2-pass High 4.1
 Writing library : x264 core 122 r2184bm 5c85e0a
 Encoding settings : cabac=1 / ref=14 / deblock=1:-1:-1 / analyse=0x3:0x133 / me=umh / subme=10 / psy=1 / psy_rd=1.05:0.05 / mixed_ref=1 / me_range=48 / chroma_me=1 / trellis=2 / 8x8dct=1 / cqm=0 / deadzone=21,11 / fast_pskip=0 / chroma_qp_offset=-3 / threads=6 / sliced_threads=0 / nr=0 / decimate=0 / interlaced=0 / bluray_compat=0 / constrained_intra=0 / bframes=10 / b_pyramid=2 / b_adapt=2 / b_bias=0 / direct=3 / weightb=1 / open_gop=0 / weightp=2 / keyint=250 / keyint_min=23 / scenecut=40 / intra_refresh=0 / rc=2pass / mbtree=0 / bitrate=3176 / ratetol=1.0 / qcomp=0.90 / qpmin=0 / qpmax=69 / qpstep=4 / cplxblur=20.0 / qblur=0.5 / ip_ratio=1.40 / pb_ratio=1.35 / aq=2:1.15
 Language : English
 Default : Yes
 Forced : No

Audio #1
 ID : 2
 Format : AC-3
 Format/Info : Audio Coding 3
 Mode extension : CM (complete main)
 Format settings, Endianness : Big
 Codec ID : A_AC3
 Duration : 1h 51mn
 Bit rate mode : Constant
 Bit rate : 192 Kbps
 Channel(s) : 2 channels
 Channel positions : Front: L R
 Sampling rate : 48.0 KHz
 Bit depth : 16 bits
 Compression mode : Lossy
 Stream size : 153 MiB (5%)
 Title : MVO первый канал AC3 ~192 kBit/s 48 kHz 2.0 DD
 Language : Russian
 Default : Yes
 Forced : No

Audio #2
 ID : 3
 Format : AC-3
 Format/Info : Audio Coding 3
 Mode extension : CM (complete main)
 Format settings, Endianness : Big
 Codec ID : A_AC3
 Duration : 1h 51mn
 Bit rate mode : Constant
 Bit rate : 192 Kbps
 Channel(s) : 2 channels
 Channel positions : Front: L R
 Sampling rate : 48.0 KHz
 Bit depth : 16 bits
 Compression mode : Lossy
 Stream size : 153 MiB (5%)
 Title : AVO Михалёв AC3 ~192 kBit/s 48 kHz 2.0 DD
 Language : Russian
 Default : No
 Forced : No

Audio #3
 ID : 4
 Format : AC-3
 Format/Info : Audio Coding 3
 Mode extension : CM (complete main)
 Format settings, Endianness : Big
 Codec ID : A_AC3
 Duration : 1h 51mn
 Bit rate mode : Constant
 Bit rate : 192 Kbps
 Channel(s) : 2 channels
 Channel positions : Front: L R
 Sampling rate : 48.0 KHz
 Bit depth : 16 bits
 Compression mode : Lossy
 Stream size : 153 MiB (5%)
 Title : English AC3 ~192 kBit/s 48 kHz 2.0 DD
 Language : Russian
 Default : No
 Forced : No

Text
 ID : 5
 Format : UTF-8
 Codec ID : S_TEXT/UTF8
 Codec ID/Info : UTF-8 Plain Text
 Language : English
 Default : No
 Forced : No
Семпл: http://narod.ru/disk/63158184001.f81783b186ee6b083b0783d3b242ee7f/Stir%20Crazy%20(1)-002.mkv.html

Релиз группы:

picpicpic
Для увеличения картинки щелкните мышкой по превью

Этот торрент недоступен для скачивания без регистрации, однако доступен по публичной magnet-ссылке (источники с публичных трекеров). Перед использованием ссылки прочтите, пожалуйста Пользовательское соглашение, а также как можно дольше оставайтесь на раздаче! Для того, чтобы скачать сам торрент-файл (который видит больше источников), а также для того, чтобы поблагодарить релизера, вам необходимо зарегистрироваться. Если регистрироваться лень - вы можете также попробовать скачать релиз по нашим партнерским ссылкам ниже.

[underverse.su].t21207.torrent
Трекер: Зарегистрирован   [ 10.11.2012 15:28 ]  

Статус: проверено (by Garnett at 11.11.2012 06:55)
Поблагодарили: пока никто не поблагодарил...
Тип торрента: публичный - доступные источники с открытых трекеров: 
Размер: 2,91 GB (занимает 2/3 DVDR, для записи нужно 1 болванка DVDR/RW)
 
 

Яндекс.Метрика powered by Sphinx


В Н И М А Н И Е
Сайт не распространяет и не хранит электронные версии произведений, а лишь бесплатно и без коммерческой выгоды (не требуя взамен платы,
SMS и т.д.) предоставляет доступ к создаваемому пользователями каталогу ссылок на торрент-файлы, которые содержат только списки хеш-сумм.
Убедительная просьба с жалобами обращаться напрямую к пользователю, разместившему торрент файл.

Вверх