Loading...
Error

Дружинники / The Watch (Акива Шаффер) [2012 г., фантастика, комедия, HDRip] Dub HQ Underverse

Статистика раздачи
Размер:  1,45 GB   |    Зарегистрирован:  4 года   |    Скачан:  45 раз
Сидов:  3  |  0 KB/s  ]   Личеров:  0  |  0 KB/s  ]

* - сиды/пиры с внешних источников

   
 
Автор Сообщение

HQ Underverse 

09-Ноя-2012 22:43

Дружинники / The Watch


Год выпуска: 2012
Жанр: фантастика, комедия
Страна: США
Режиссер: Акива Шаффер
В ролях: Бен Стиллер, Винс Вон, Джона Хилл, Ричард Айоаде, Розмари ДеУитт, Уилл Форте, Эрин Мориарти, Николас Браун, Р. Ли Эрми, Билли Крудап
Сюжет фильма:
Сюжет фильма разворачивается вокруг дружной компании соседей, организовавших дружину ради патрулирования окрестностей и поддержания порядка. В действительности благие намерения были лишь поводом хотя бы изредка сбегать от семьи, дабы покутить вечерком в сугубо мужской компании. Безоблачная жизнь заканчивается в тот момент, когда соседский дозор случайно узнаёт о заговоре с целью уничтожить мир.

  • Мировая премьера: 27 июля 2012
  • Российская премьера: 23 августа 2012, «Двадцатый Век Фокс СНГ»


Качество видео: HDRip

Продолжительность: 01:41:57
Формат: avi
Видео: XviD, 720x304, 1577 kbps
Аудио #1: русский, дублированный [лицензия], AC3 5.1, 448 kbps
Аудио #2: английский, оригинал, AC3 5.1, 448 kbps (отдельным файлом)
Аудио #3: украинский, дублированный [лицензия], AC3 5.1, 448 kbps (отдельным файлом)
Субтитры #1: внешние, SRT, английский
Субтитры #2: внешние, SRT, русский
Субтитры #3: внешние, SRT, украинский

Код:

General
Complete name                    : D:\Video\Movies\Releases\The.Watch.2012.HDRip.XviD.AC3.Rus.D.HQ.Underverse.avi
Format                           : AVI
Format/Info                      : Audio Video Interleave
File size                        : 1.45 GiB
Duration                         : 1h 41mn
Overall bit rate                 : 2 035 Kbps
Writing application              : VirtualDubMod 1.5.10.2 (build 2540/release)
Writing library                  : VirtualDubMod build 2540/release

Video
ID                               : 0
Format                           : MPEG-4 Visual
Format profile                   : Streaming Video@L1
Format settings, BVOP            : Yes
Format settings, QPel            : No
Format settings, GMC             : No warppoints
Format settings, Matrix          : Custom
Muxing mode                      : Packed bitstream
Codec ID                         : XVID
Codec ID/Hint                    : XviD
Duration                         : 1h 41mn
Bit rate                         : 1 577 Kbps
Width                            : 720 pixels
Height                           : 304 pixels
Display aspect ratio             : 2.35
Frame rate                       : 23.976 fps
Resolution                       : 24 bits
Colorimetry                      : 4:2:0
Scan type                        : Progressive
Bits/(Pixel*Frame)               : 0.301
Stream size                      : 1.12 GiB (78%)
Writing library                  : XviD 64

Audio
ID                               : 1
Format                           : AC-3
Format/Info                      : Audio Coding 3
Codec ID                         : 2000
Duration                         : 1h 41mn
Bit rate mode                    : Constant
Bit rate                         : 448 Kbps
Channel(s)                       : 6 channels
Channel positions                : Front: L C R, Surround: L R, LFE
Sampling rate                    : 48.0 KHz
Stream size                      : 327 MiB (22%)
Alignment                        : Split accross interleaves
Interleave, duration             : 42 ms (1.00 video frame)
Interleave, preload duration     : 500 ms
Title                            : The.Watch.2012.HDRip.XviD.AC3.5.1.448.kbps.Rus.D.HQ.Underverse.ac3

General
Complete name                    : D:\Video\Movies\Releases\The.Watch.2012.HDRip.XviD.AC3.Rus.D.HQ.Underverse.Eng.ac3
Format                           : AC-3
Format/Info                      : Audio Coding 3
File size                        : 327 MiB
Duration                         : 1h 41mn
Overall bit rate                 : 448 Kbps

Audio
Format                           : AC-3
Format/Info                      : Audio Coding 3
Duration                         : 1h 41mn
Bit rate mode                    : Constant
Bit rate                         : 448 Kbps
Channel(s)                       : 6 channels
Channel positions                : Front: L C R, Surround: L R, LFE
Sampling rate                    : 48.0 KHz
Stream size                      : 327 MiB (100%)

General
Complete name                    : D:\Video\Movies\Releases\The.Watch.2012.HDRip.XviD.AC3.Rus.D.HQ.Underverse.Ukr.ac3
Format                           : AC-3
Format/Info                      : Audio Coding 3
File size                        : 327 MiB
Duration                         : 1h 41mn
Overall bit rate                 : 448 Kbps

Audio
Format                           : AC-3
Format/Info                      : Audio Coding 3
Duration                         : 1h 41mn
Bit rate mode                    : Constant
Bit rate                         : 448 Kbps
Channel(s)                       : 6 channels
Channel positions                : Front: L C R, Surround: L R, LFE
Sampling rate                    : 48.0 KHz
Stream size                      : 327 MiB (100%)

Семпл: http://multi-up.com/788308

Релиз группы:

picpicpic
Для увеличения картинки щелкните мышкой по превью

Этот торрент недоступен для скачивания без регистрации, однако доступен по публичной magnet-ссылке (источники с публичных трекеров). Перед использованием ссылки прочтите, пожалуйста Пользовательское соглашение, а также как можно дольше оставайтесь на раздаче! Для того, чтобы скачать сам торрент-файл (который видит больше источников), а также для того, чтобы поблагодарить релизера, вам необходимо зарегистрироваться. Если регистрироваться лень - вы можете также попробовать скачать релиз по нашим партнерским ссылкам ниже.

[underverse.su].t21189.torrent
Трекер: Зарегистрирован   [ 09.11.2012 22:43 ]  

Статус: проверено (by HQ Underverse at 09.11.2012 22:44)
Поблагодарили: 2 человека
Тип торрента: публичный - доступные источники с открытых трекеров: 
Размер: 1,45 GB (занимает 1/3 DVDR, для записи нужно 1 болванка DVDR/RW)
 
 
Похожие темы
Форум Тема Автор Торрент Отв. Посл. сооб.
Зарубежное кино [DVDRip, Low-Res HDRip, и т.д.] Дружинники / The Watch (Акива Шаффер) [2012 г., Фантастика, комедия, HDRip] Dub + Original 90ytr90
0 | 0

2 | 499

25

06.11.2012 14:26

Зарубежное кино [DVDRip, Low-Res HDRip, и т.д.] Дружинники / The Watch (Акива Шаффер) [2012 г., фантастика, комедия, HDRip] Dub [лицензия] RG NewCinema
2 | 0

0 | 812

72

06.11.2012 04:49

Зарубежное кино [DVDRip, Low-Res HDRip, и т.д.] Дружинники / The Watch (Акива Шаффер) [2012 г., фантастика, комедия, HDRip-AVC] Dub Garnett
54 | 0

0 | 392

4

07.11.2012 13:18

Зарубежное кино [DVDRip, Low-Res HDRip, и т.д.] Дружинники / The Watch (Акива Шаффер) [2012 г., фантастика, комедия, BDRip] Dub Garnett
1 | 0

0 | 395

9

07.11.2012 13:21

Зарубежное кино [HDDVDRip / BDRip / WEB-DL / HDTV 1080/720р] Дружинники / The Watch ( Акива Шаффер) [2012 г., фантастика, комедия, BDRip 1080p] Dub Чертёнок
0 | 0

1 | 1210

14

01.03.2013 20:31


Яндекс.Метрика powered by Sphinx


В Н И М А Н И Е
Сайт не распространяет и не хранит электронные версии произведений, а лишь бесплатно и без коммерческой выгоды (не требуя взамен платы,
SMS и т.д.) предоставляет доступ к создаваемому пользователями каталогу ссылок на торрент-файлы, которые содержат только списки хеш-сумм.
Убедительная просьба с жалобами обращаться напрямую к пользователю, разместившему торрент файл.

Вверх