Loading...
Error

Август Раш / August Rush (Кёрстен Шеридан) [2007 г., драма, музыка, DVDRip] MVO

 
Автор Сообщение

sssr32 Пол:Муж

09-Ноя-2012 13:09

Август Раш / August Rush


Год выпуска: 2007
Жанр: драма, музыка
Страна: США
Режиссер: Кёрстен Шеридан
В ролях: Фредди Хаймор, Робин Уильямс, Кери Рассел, Джонатан Риз Майерс, Терренс Ховард, Уильям Сэдлер, Мэриэн Селдес, Майкелти Уильямсон, Леон Дж. Томас III, Аарон Стэтон
Сюжет фильма:
Молодой харизматичный ирландский гитарист и американская виолончелистка из престижной семьи полюбили друг друга. После волшебной встречи в Нью-Йорке, обстоятельства оказываются сильнее их и они вынуждены расстаться. Родившийся ребёнок, Август Раш, по столь же несчастливому стечению обстоятельств оказывается в одном из нью-Йоркских приютов.

Двенадцать лет спустя Август Раш, необыкновенно талантливый для своего возраста музыкант, отчаянно стремится найти своих родителей.

Единственной возможностью для этого он считает свою музыку — юный музыкант верит, что если он будет играть его родители смогут узнать и найти его по музыке. Теперь, опекаемый загадочным незнакомцем, он играет на улицах Нью-Йорка и пытается найти родителей, которых он никогда не видел, с помощью своего исключительного музыкального дара.

  • Мировая премьера: 6 октября 2007

Качество видео: DVDRip

Продолжительность: 01:53:37
Формат: avi
Видео: XviD, 656x272, 769 kbps
Аудио: русский, многоголосый закадровый [профессиональный], MP3 2.0, 128 kbps

Код:

General
Complete name                    : F:\Фильмы\August_rash.avi
Format                           : AVI
Format/Info                      : Audio Video Interleave
File size                        : 737 MiB
Duration                         : 1h 53mn
Overall bit rate                 : 906 Kbps
Movie name                       : August Rush 2007
Director                         : Petey [*другой трекер*]
Genre                            : Drama
Writing application              : VirtualDubMod 1.5.10.2 (build 2540/release)
Writing library                  : VirtualDubMod build 2540/release
Original source form/Name        : Movie

Video
ID                               : 0
Format                           : MPEG-4 Visual
Format profile                   : Streaming Video@L1
Format settings, BVOP            : Yes
Format settings, QPel            : No
Format settings, GMC             : No warppoints
Format settings, Matrix          : Default (MPEG)
Codec ID                         : XVID
Codec ID/Hint                    : XviD
Duration                         : 1h 53mn
Bit rate                         : 769 Kbps
Width                            : 656 pixels
Height                           : 272 pixels
Display aspect ratio             : 2.412
Frame rate                       : 23.976 fps
Resolution                       : 24 bits
Colorimetry                      : 4:2:0
Scan type                        : Progressive
Bits/(Pixel*Frame)               : 0.180
Stream size                      : 625 MiB (85%)
Writing library                  : XviD 1.2.1 (UTC 2008-12-04)

Audio
ID                               : 1
Format                           : MPEG Audio
Format version                   : Version 1
Format profile                   : Layer 3
Codec ID                         : 55
Codec ID/Hint                    : MP3
Duration                         : 1h 53mn
Bit rate mode                    : Constant
Bit rate                         : 128 Kbps
Channel(s)                       : 2 channels
Sampling rate                    : 48.0 KHz
Resolution                       : 16 bits
Stream size                      : 104 MiB (14%)
Alignment                        : Aligned on interleaves
Interleave, duration             : 42 ms (1.00 video frame)
Interleave, preload duration     : 504 ms
Writing library                  : LAME3.97
Encoding settings                : -m s -V 4 -q 2 -lowpass 17 -b 128

pic pic pic
Для увеличения картинки щелкните мышкой по превью
Download Для того, чтобы скачать этот торрент, необходимо залогиниться! Если у Вас нет логина на нашем трекере - зарегистрируйтесь, и он у Вас будет.

Как качать с торрент трекера  ·   Что такое torrent (торрент)  ·   Рейтинг и ограничения

 

Яндекс.Метрика powered by Sphinx


В Н И М А Н И Е
Сайт не распространяет и не хранит электронные версии произведений, а лишь бесплатно и без коммерческой выгоды (не требуя взамен платы,
SMS и т.д.) предоставляет доступ к создаваемому пользователями каталогу ссылок на торрент-файлы, которые содержат только списки хеш-сумм.
Убедительная просьба с жалобами обращаться напрямую к пользователю, разместившему торрент файл.

Вверх