Loading...
Error

Обратная сторона Луны / Серии: 1-16(16) (Александр Котт) [2012, Фантастика, SATRip]

Статистика раздачи
Размер:  9,55 GB   |    Зарегистрирован:  4 года   |    Скачан:  58 раз

Полного источника не было: 26 дней

Сидов:  0  |  0 KB/s  ]   Личеров:  1  |  0 KB/s  ]

* - сиды/пиры с внешних источников

   
 
Автор Сообщение

nemos Пол:Муж

09-Ноя-2012 08:46

Обратная сторона Луны


Год выпуска: 2012
Жанр: Фантастика
Страна: Россия
Режиссер: Александр Котт
В ролях: Павел Деревянко, Светлана Смирнова-Марцинкевич, Иван Шибанов, Карина Разумовская, Евгений Богомолов, Олег Алмазов, Дмитрий Гусев, Александр Ляпин, Татьяна Чердынцева, Сергей Беляев
Сюжет фильма:
Третий год старший лейтенант полиции Михаил Соловьев идет по следу Маньяка, терроризирующего столицу убийствами молодых женщин. Во время операции задержания Маньяк сбивает Соловьева автомобилем.

Придя в себя после аварии, Михаил обнаруживает, что переместился во времени и оказался в 1979 году. Не понимая до конца, что с ним произошло, он, тем не менее, старается адаптироваться к новым обстоятельствам, работая советским милиционером. А попутно пытается выяснить, в чем причина случившейся с ним метаморфозы.


Качество видео: SatRip

Продолжительность: 00:51:51серия
Формат: AVI
Видео: XviD, 704x400, 1 510 kbps
Аудио: русский, MP3 2.0, 128kbps

Код:

E:\ÑÊÀ×ÊÈ\Ñ underverse\Obratnaja.storona.Luny.(01_16.serii.iz.16).2012.XviD.SATRip.KimVlad\Obratnaja.storona.Luny.(16.seriya.iz.16).2012.XviD.SATRip.KimVlad.avi
   General
      Complete name : E:\ÑÊÀ×ÊÈ\Ñ underverse\Obratnaja.storona.Luny.(01_16.serii.iz.16).2012.XviD.SATRip.KimVlad\Obratnaja.storona.Luny.(16.seriya.iz.16).2012.XviD.SATRip.KimVlad.avi
      Format : AVI
      Format/Info : Audio Video Interleave
      File size : 611 MiB
      Duration : 51mn 51s
      Overall bit rate : 1 647 Kbps
      Writing application : VirtualDubModRus 1.5.10.2 (build 2542/release)
      Writing library : VirtualDubMod build 2542/release
   Video #0
      ID : 0
      Format : MPEG-4 Visual
      Format profile : Simple@L1
      Format settings, BVOP : No
      Format settings, QPel : No
      Format settings, GMC : No warppoints
      Format settings, Matrix : Default (H.263)
      Codec ID : XVID
      Codec ID/Hint : XviD
      Duration : 51mn 51s
      Bit rate : 1 510 Kbps
      Width : 704 pixels
      Height : 400 pixels
      Display aspect ratio : 16:9
      Frame rate : 25.000 fps
      Color space : YUV
      Chroma subsampling : 4:2:0
      Bit depth : 8 bits
      Scan type : Progressive
      Compression mode : Lossy
      Bits/(Pixel*Frame) : 0.214
      Stream size : 560 MiB (92%)
      Writing library : Lavc52.83.0
   Audio #1
      ID : 1
      Format : MPEG Audio
      Format version : Version 1
      Format profile : Layer 3
      Mode : Joint stereo
      Mode extension : MS Stereo
      Codec ID : 55
      Codec ID/Hint : MP3
      Duration : 51mn 51s
      Bit rate mode : Constant
      Bit rate : 128 Kbps
      Channel(s) : 2 channels
      Sampling rate : 48.0 KHz
      Compression mode : Lossy
      Stream size : 47.5 MiB (8%)
      Alignment : Split accross interleaves
      Interleave, duration : 40 ms (1.00 video frame)
      Interleave, preload duration : 500 ms
Семпл: http://multi-up.com/787917

picpicpicpicpicpicpicpicpicpicpicpicpicpic
Для увеличения картинки щелкните мышкой по превью

Этот торрент недоступен для скачивания без регистрации, однако доступен по публичной magnet-ссылке (источники с публичных трекеров). Перед использованием ссылки прочтите, пожалуйста Пользовательское соглашение, а также как можно дольше оставайтесь на раздаче! Для того, чтобы скачать сам торрент-файл (который видит больше источников), а также для того, чтобы поблагодарить релизера, вам необходимо зарегистрироваться. Если регистрироваться лень - вы можете также попробовать скачать релиз по нашим партнерским ссылкам ниже.

[underverse.su].t21316.torrent
Трекер: Зарегистрирован   [ 15.11.2012 14:13 ]  

Статус: проверено (by garry at 15.11.2012 15:07)
Поблагодарили: 19 человек
Тип торрента: публичный - доступные источники с открытых трекеров: 
Размер: 9,55 GB (занимает 2,18 DVDR, для записи нужно 3 болванки DVDR/RW)
 
 
Похожие темы
Форум Тема Автор Торрент Отв. Посл. сооб.
Научно-популярные фильмы Обратная сторона прогресса / Surviving Progress (Мэтью Рой, Гарольд Крукс) [2011 г., документальный, научно-познавательный, HDTVRip 720p] VO ARI71
0 | 0

0 | 393

2

14.09.2016 07:54



Последний раз редактировалось: nemos (06.11.2014 12:39), всего редактировалось 6 раз(а)

Sonc Пол:Муж

09-Ноя-2012 14:09

Чет вообще не качается...

Aggron Пол:Муж

09-Ноя-2012 14:17

Sonc

Цитата:

Сидов: [ 0 + 0* | 0 KB/s ] Личеров: [ 8 + 0* | 0 KB/s ]
Нажмите "Позвать скачавших" может поможет :unknown:

Sonc Пол:Муж

09-Ноя-2012 14:22

Aggron писал(а):

Sonc

Цитата:

Сидов: [ 0 + 0* | 0 KB/s ] Личеров: [ 8 + 0* | 0 KB/s ]
Нажмите "Позвать скачавших" может поможет :unknown:
Звать-то некого:

Размер: 5,11 GB | Зарегистрирован: 5 часов | Скачан: 0 раз

Aggron Пол:Муж

09-Ноя-2012 14:24

Sonc
Автору релиза сообщение прийти должно, ну и тем кто скачал, в данный момент их нет)

dmitrich0602 

09-Ноя-2012 15:14

3 часа и ни с место.Где сиды?

www56yuihhh543 

09-Ноя-2012 15:21

8) 8) 8) :evil: не качается ни... :cry:

Sonc Пол:Муж

09-Ноя-2012 15:49

Aggron писал(а):

Sonc
Автору релиза сообщение прийти должно, ну и тем кто скачал, в данный момент их нет)
У автора что-то со связью. Другие его раздачи тоже стоят.
Скачать тоже никто не успел.
У меня есть 1-6 серии. Интересуют только 7-8, т.к вчера не успел по ТВ посмотреть...

garry Пол:Муж

09-Ноя-2012 15:53

торрент-файл обновлен.

dmitrich0602 

09-Ноя-2012 16:30

ура поперло :Yahoo!:

weter.spb 

10-Ноя-2012 20:07

Спасибки!!!! Искать в он-лайне замучился!!!! Тоже в четверг посмотреть не смог :)

nemos Пол:Муж

12-Ноя-2012 15:14

Добавлены 9-10 серии

nemos Пол:Муж

13-Ноя-2012 14:31

Добавлены 11-12 серии

nemos Пол:Муж

14-Ноя-2012 14:24

Обновлена роздача

nemos Пол:Муж

15-Ноя-2012 14:15

Обновлен,Добавлены все серии,

Яндекс.Метрика powered by Sphinx


В Н И М А Н И Е
Сайт не распространяет и не хранит электронные версии произведений, а лишь бесплатно и без коммерческой выгоды (не требуя взамен платы,
SMS и т.д.) предоставляет доступ к создаваемому пользователями каталогу ссылок на торрент-файлы, которые содержат только списки хеш-сумм.
Убедительная просьба с жалобами обращаться напрямую к пользователю, разместившему торрент файл.

Вверх