Loading...
Error

Третий лишний / Ted (Сет МакФарлейн) [2012 г., фэнтези, комедия, HDRip] Dub + Eng HQ Underverse

Статистика раздачи
Размер:  2,18 GB   |    Зарегистрирован:  4 года   |    Скачан:  94 раза

Полного источника не было: 15 часов

Сидов:  0  |  0 KB/s  ]   Личеров:  0  |  0 KB/s  ]

* - сиды/пиры с внешних источников

   
 
Автор Сообщение

HQ Underverse 

09-Ноя-2012 01:27

Третий лишний / Ted


Год выпуска: 2012
Жанр: фэнтези, комедия
Страна: США
Режиссер: Сет МакФарлейн
В ролях: Марк Уолберг, Мила Кунис, Сет МакФарлейн, Джоэль МакХэйл, Джованни Рибизи, Патрик Варбертон, Мэтт Уолш, Джессика Барт, Аэдин Минкс, Билл Смитрович
Сюжет фильма:
Джон влюблен в красавицу Лори, у него отличная работа и большие планы на будущее. Но в их отношения вмешивается третий, давний друг Джона — Тед. Он отрывается сутки напролет, предпочитает случайные связи и не желает терять друга. Но никто на самом деле не знает на что он способен, ведь Тед — большой плюшевый медведь.

  • Мировая премьера: 29 июня 2012
  • Российская премьера: 2 августа 2012, «UPI»


Качество видео: HDRip

Продолжительность: 01:46:03
Формат: avi
Видео: XviD, 720x384, 2031 kbps
Аудио #1: русский, дублированный [лицензия], AC3 5.1, 448 kbps
Аудио #2: английский, оригинал, AC3 5.1, 448 kbps

Код:

General
Complete name                    : D:\Video\Movies\Releases\Ted.2012.HDRip.XviD.AC3.Rus.D.Eng.O.HQ.Underverse.avi
Format                           : AVI
Format/Info                      : Audio Video Interleave
Format profile                   : OpenDML
File size                        : 2.18 GiB
Duration                         : 1h 46mn
Overall bit rate                 : 2 945 Kbps
Writing application              : VirtualDubMod 1.5.10.2 (build 2540/release)
Writing library                  : VirtualDubMod build 2540/release

Video
ID                               : 0
Format                           : MPEG-4 Visual
Format profile                   : Streaming Video@L1
Format settings, BVOP            : Yes
Format settings, QPel            : No
Format settings, GMC             : No warppoints
Format settings, Matrix          : Custom
Muxing mode                      : Packed bitstream
Codec ID                         : XVID
Codec ID/Hint                    : XviD
Duration                         : 1h 46mn
Bit rate                         : 2 031 Kbps
Width                            : 720 pixels
Height                           : 384 pixels
Display aspect ratio             : 1.875
Frame rate                       : 23.976 fps
Resolution                       : 24 bits
Colorimetry                      : 4:2:0
Scan type                        : Progressive
Bits/(Pixel*Frame)               : 0.306
Stream size                      : 1.50 GiB (69%)
Writing library                  : XviD 64

Audio #1
ID                               : 1
Format                           : AC-3
Format/Info                      : Audio Coding 3
Codec ID                         : 2000
Duration                         : 1h 46mn
Bit rate mode                    : Constant
Bit rate                         : 448 Kbps
Channel(s)                       : 6 channels
Channel positions                : Front: L C R, Surround: L R, LFE
Sampling rate                    : 48.0 KHz
Stream size                      : 340 MiB (15%)
Alignment                        : Split accross interleaves
Interleave, duration             : 42 ms (1.00 video frame)
Interleave, preload duration     : 500 ms
Title                            : Ted.2012.Rus.D.AC3.5.1.kbps.ac3

Audio #2
ID                               : 2
Format                           : AC-3
Format/Info                      : Audio Coding 3
Codec ID                         : 2000
Duration                         : 1h 46mn
Bit rate mode                    : Constant
Bit rate                         : 448 Kbps
Channel(s)                       : 6 channels
Channel positions                : Front: L C R, Surround: L R, LFE
Sampling rate                    : 48.0 KHz
Stream size                      : 340 MiB (15%)
Alignment                        : Split accross interleaves
Interleave, duration             : 42 ms (1.00 video frame)
Interleave, preload duration     : 500 ms
Title                            : Ted.2012.Eng.O.AC3.5.1.kbps.ac3

Семпл: http://multi-up.com/787834

Релиз группы:

picpicpic
Для увеличения картинки щелкните мышкой по превью

Этот торрент недоступен для скачивания без регистрации, однако доступен по публичной magnet-ссылке (источники с публичных трекеров). Перед использованием ссылки прочтите, пожалуйста Пользовательское соглашение, а также как можно дольше оставайтесь на раздаче! Для того, чтобы скачать сам торрент-файл (который видит больше источников), а также для того, чтобы поблагодарить релизера, вам необходимо зарегистрироваться. Если регистрироваться лень - вы можете также попробовать скачать релиз по нашим партнерским ссылкам ниже.

[underverse.su].t21170.torrent
Трекер: Зарегистрирован   [ 09.11.2012 01:27 ]  

Статус: проверено (by HQ Underverse at 09.11.2012 01:28)
Поблагодарили: 2 человека
Тип торрента: публичный - доступные источники с открытых трекеров: 
Размер: 2,18 GB (занимает 1/2 DVDR, для записи нужно 1 болванка DVDR/RW)
 
 
Похожие темы
Форум Тема Автор Торрент Отв. Посл. сооб.
Зарубежное кино [DVDRip, Low-Res HDRip, и т.д.] Третий лишний / Ted (Сет МакФарлейн) [2012 г., фэнтези, комедия, BDRip] Dub [лицензия] 90ytr90
28 | 0

0 | 1022

66

08.11.2012 19:22

Зарубежное кино [DVDRip, Low-Res HDRip, и т.д.] Третий лишний / Ted (Сет МакФарлейн) [2012 г., фэнтези, комедия, HDRip-AVC] Dub + Original Garnett
4 | 0

0 | 1313

39

10.11.2012 07:39

Зарубежное кино [DVDRip, Low-Res HDRip, и т.д.] Третий лишний / Ted [Unrated] (Сет МакФарлейн) [2012 г., фэнтези, комедия, HDRip] VO (А. Дасевич) 90ytr90
9 | 0

1 | 665

15

12.12.2012 17:54

Зарубежное кино [DVDRip, Low-Res HDRip, и т.д.] Третий лишний / Tangled (Джей Лоуи) [2001 г., триллер, драма, DVDRip] MVO RG NewCinema
0 | 0

0 | 923

5

13.12.2012 18:56

T Зарубежное кино [DVDRip, Low-Res HDRip, и т.д.] Третий лишний 2 / Ted 2 (Сет МакФарлейн) [2015 г., комедия, WEB-DLRip] Dub makkol
197 | 5

0 | 581

42

23.09.2015 22:17

T Зарубежное кино [DVDRip, Low-Res HDRip, и т.д.] Третий лишний 2 / Ted 2 (Сет МакФарлейн / Seth MacFarlane) [2015 г., комедия, HDRip] [USA Theatrical Cut] Dub/VO (iTunes) 90ytr90
279 | 3

0 | 539

14

31.01.2016 16:39

Зарубежное кино [DVDRip, Low-Res HDRip, и т.д.] Третий лишний 2 / Ted 2 (Сет МакФарлейн / Seth MacFarlane) [2015 г., комедия, BDRip] [Unrated Cut] AVO (Есарев) 90ytr90
7 | 0

0 | 467

3

31.01.2016 16:49

T Зарубежное кино [DVDRip, Low-Res HDRip, и т.д.] Третий лишний 2 / Ted 2 (Сет МакФарлейн / Seth MacFarlane) [2015 г., комедия, BDRip] [Unrated Cut] Dub/AVO (iTunes) 90ytr90
248 | 1

0 | 551

10

31.01.2016 16:54

T Зарубежное кино [DVDRip, Low-Res HDRip, и т.д.] Третий лишний 2 / Ted 2 (Сет МакФарлейн / Seth MacFarlane) [2015 г., комедия, BDRip-AVC] [USA Theatrical Cut] Dub/AVO (iTunes) + Sub (Ukr, Eng) 90ytr90
78 | 5

0 | 517

9

31.01.2016 17:05

Зарубежное кино HQ Третий лишний / Ted [Unrated] (Сет МакФарлейн) [2012 г., фэнтези, комедия, HDRip] VO + Original HQ Underverse HQ Underverse
0 | 0

1 | 1317

33

09.12.2012 19:03

fcsevilia 

09-Ноя-2012 09:16

full hd будет?

Яндекс.Метрика powered by Sphinx


В Н И М А Н И Е
Сайт не распространяет и не хранит электронные версии произведений, а лишь бесплатно и без коммерческой выгоды (не требуя взамен платы,
SMS и т.д.) предоставляет доступ к создаваемому пользователями каталогу ссылок на торрент-файлы, которые содержат только списки хеш-сумм.
Убедительная просьба с жалобами обращаться напрямую к пользователю, разместившему торрент файл.

Вверх