Loading...
Error

Discovery: Десятка лучших танков / Top Ten Tanks [2004 г., документальный, TVRip] VO

Статистика раздачи
Размер:  351 MB   |    Зарегистрирован:  4 года 1 месяц   |    Скачан:  7 раз

Полного источника не было: 4 месяца 30 дней

Сидов:  0  |  0 KB/s  ]   Личеров:  0  |  0 KB/s  ]

* - сиды/пиры с внешних источников

   
 
Автор Сообщение

sssr32 Пол:Муж

08-Ноя-2012 22:37

Discovery: Десятка лучших танков / Top Ten Tanks


Год выпуска: 2004
Жанр: документальный
Страна: США
Режиссер: Жобим Сэмпсон
Сюжет фильма:
Танк объединяет в себе высокую огневую мощь, надежную броневую защиту и маневренность. Тысячи смертоносных машин были созданы за последнее столетие, они участвовали в боях на всех континентах, сметая все на своем пути. На основании оценок экспертов, опросов аудитории и технических сравнений был составлен рейтинг самых лучших танков всех времен и народов.
Качество видео: TVRip

Продолжительность: 00:46:43
Формат: avi
Видео: XviD, 640x480, 914 kbps
Аудио: русский, одноголосый закадровый [профессиональный], MP3 2.0, 128 kbps

Код:

General
Complete name                    : F:\Фильмы\Первая десятка\Pervaja.desjatka.Desjat.luchshih.tankov.2006.P1.TVRip.avi
Format                           : AVI
Format/Info                      : Audio Video Interleave
File size                        : 351 MiB
Duration                         : 46mn 43s
Overall bit rate                 : 1 050 Kbps
Writing application              : VirtualDubMod 1.5.4.1 (build 2178/release)
Writing library                  : VirtualDubMod build 2178/release

Video
ID                               : 0
Format                           : MPEG-4 Visual
Format profile                   : Streaming Video@L1
Format settings, BVOP            : Yes
Format settings, QPel            : No
Format settings, GMC             : No warppoints
Format settings, Matrix          : Custom
Codec ID                         : XVID
Codec ID/Hint                    : XviD
Duration                         : 46mn 43s
Bit rate                         : 914 Kbps
Width                            : 640 pixels
Height                           : 480 pixels
Display aspect ratio             : 4/3
Frame rate                       : 25.000 fps
Resolution                       : 24 bits
Colorimetry                      : 4:2:0
Scan type                        : Progressive
Bits/(Pixel*Frame)               : 0.119
Stream size                      : 306 MiB (87%)
Writing library                  : XviD 1.1.2 (UTC 2006-11-01)

Audio
ID                               : 1
Format                           : MPEG Audio
Format version                   : Version 1
Format profile                   : Layer 3
Codec ID                         : 55
Codec ID/Hint                    : MP3
Duration                         : 46mn 43s
Bit rate mode                    : Constant
Bit rate                         : 128 Kbps
Channel(s)                       : 2 channels
Sampling rate                    : 48.0 KHz
Resolution                       : 16 bits
Stream size                      : 42.8 MiB (12%)
Alignment                        : Aligned on interleaves
Interleave, duration             : 80 ms (2.00 video frames)
Interleave, preload duration     : 504 ms
Writing library                  : LAME3.97
Encoding settings                : -m j -V 4 -q 2 -lowpass 17 -b 128

picpicpic
Для увеличения картинки щелкните мышкой по превью

Этот торрент недоступен для скачивания без регистрации, однако доступен по публичной magnet-ссылке (источники с публичных трекеров). Перед использованием ссылки прочтите, пожалуйста Пользовательское соглашение, а также как можно дольше оставайтесь на раздаче! Для того, чтобы скачать сам торрент-файл (который видит больше источников), а также для того, чтобы поблагодарить релизера, вам необходимо зарегистрироваться. Если регистрироваться лень - вы можете также попробовать скачать релиз по нашим партнерским ссылкам ниже.

[underverse.su].t21168.torrent
Трекер: Зарегистрирован   [ 08.11.2012 22:37 ]  

Статус: проверено (by garry at 08.11.2012 23:01)
Поблагодарили: пока никто не поблагодарил...
Тип торрента: публичный - доступные источники с открытых трекеров: 
Размер: 351 MB (занимает 0,08 DVDR, для записи нужно 1 болванка DVDR/RW)
 
 
Похожие темы
Форум Тема Автор Торрент Отв. Посл. сооб.
Discovery Discovery: Новый мир / Discovery: Next World [2008 г., Документальный, HDRip] (12 серий из 12) theatre
0 | 0

0 | 982

3

26.02.2012 18:26

Discovery Discovery: Наука сексуальной привлекательности / Discovery: Science Of Sex Appeal [2007 г., документальный, исследование, психология, физиология, DVDRip] DVO Паукан
1 | 0

0 | 1075

59

25.11.2012 20:12

Discovery Discovery: Эд Стаффорд: голое выживание / Ed Stafford: Naked and Marooned / серии 1-3 (03) (Эд Стаффорд) [2013 г., документальный, приключения, экстрим, природа, SATRip] VO 90ytr90
0 | 0

0 | 1375

19

11.04.2013 17:56

Discovery Discovery: Тайны боевых искусств / Fight Quest, Sztuki walki (Серии 1-4 (4) [2007 г., Документальный, спорт, HDRip] MVO Чертёнок
0 | 1

0 | 6912

17

08.06.2013 18:18

Discovery Discovery: Мумии пришельцев / Discovery: Aliens mummies (Джон Каррози) [2012 г., документальный, научно-популярный, HDTVRip] VO 90ytr90
1 | 0

0 | 1323

34

17.03.2014 17:21

Discovery Discovery: Магия Бена Эрла. Наука / Ben Earl Trick Artist. Science (Саймон Динсел) [2014 г., тв-шоу, SATRip] VO Jimmy
1 | 0

0 | 598

7

05.04.2014 08:36

Discovery Discovery: Будущее с Джеймсом Вудсом. Как стать суперчеловеком? / Futurescape with James Woods. How to be a Superhuman? (Эми Макуага, Шен Санфорд) [2014 г., научно-популярный, познавательный,... Jimmy
2 | 0

0 | 795

10

05.04.2014 08:42

* Архив Discovery: Бесстрашная планета / Discovery:Fearless Planet [2007 г., документальный, BDRip] yurakmm

1 | 1090

12.09.2010 19:40

Архив Discovery: 101 вещь, которую стоит сделать перед смертью / Discovery: 101 Things to Do Before You Die [2006 г., документальный] yurakmm
0 | 0

2 | 1398

6

08.10.2010 21:24

* Архив Discovery: Выжить любой ценой. Африканская саванна / Ultimate Survival. African Savannah (Алексис Жирарде (Alexis Girardet), Марк Весткот (Mark Westcott)) [2007 г., Документальный, Научно-популярный,... GanibalKing

6 | 1670

30.08.2010 01:31


Яндекс.Метрика powered by Sphinx


В Н И М А Н И Е
Сайт не распространяет и не хранит электронные версии произведений, а лишь бесплатно и без коммерческой выгоды (не требуя взамен платы,
SMS и т.д.) предоставляет доступ к создаваемому пользователями каталогу ссылок на торрент-файлы, которые содержат только списки хеш-сумм.
Убедительная просьба с жалобами обращаться напрямую к пользователю, разместившему торрент файл.

Вверх