Loading...
Error

Казак (Игорь Копылов) [2012 г., криминал, SATRip]

Статистика раздачи
Размер:  745 MB   |    Зарегистрирован:  4 года 1 месяц   |    Скачан:  22 раза

Полного источника не было: 1 год 7 месяцев

Сидов:  0  |  0 KB/s  ]   Личеров:  0  |  0 KB/s  ]

* - сиды/пиры с внешних источников

   
 
Автор Сообщение

nemos Пол:Муж

07-Ноя-2012 19:50



Год выпуска: 2012
Жанр: Боевик, криминал
Страна: Россия
Режиссер: Игорь Копылов
В ролях: Николай Козак, Игорь Павлов, Дарья Румянцева, Алексей Величко, Владимир Зайцев, Михаил ЕлисеевЕвгений Сиротин,
Сюжет фильма:
Тимофея Петрова выбирают новым атаманом казачьей станицы. К нему обращается бизнесмен из Петербурга — Зарецкий — и просит продать ему станичную землю под строительство завода. Предыдущий атаман отказал Зарецкому, ведь на этой земле казаки хотят построить церковь. Дочь Петрова, Катя, живет в Петербурге и поет в фольклорном ансамбле.

Однажды на корпоративной вечеринке Катю похищают. Она успевает позвонить отцу и сказать, что находится у деревни Ушанки. Девушку избивают и выбрасывают из машины. Петров срочно приезжает в Петербург. Недалеко от деревни Ушанки в канаве он находит полумертвую Катю. Атаман отвозит дочь в больницу — она без сознания, и врачи не могут гарантировать, что девушка выживет. Теперь Петров хочет только одного — найти обидчиков дочери и отомстить им. А за родную кровь да честное имя казаку и жизнь не жалко отдать!


Качество видео: SatRip

Продолжительность: 01:27:00
Формат: AVI
Видео: XviD, 672x368 , 1 056 kbps
Аудио: русский, MP3 2.0, 128 kbps

Код:

E:\ÑÊÀ×ÊÈ\Ñ underverse\kazak.2012.satrip.745mb.by.riperrr.avi
   General
      Complete name : E:\ÑÊÀ×ÊÈ\Ñ underverse\kazak.2012.satrip.745mb.by.riperrr.avi
      Format : AVI
      Format/Info : Audio Video Interleave
      File size : 745 MiB
      Duration : 1h 27mn
      Overall bit rate : 1 194 Kbps
      Movie name : kazak.2012.satrip.745mb.by.riperrr
      Writing application : VirtualDubMod 1.5.10.3 | www.virtualdub-fr.org || (build 2550/release)
      Copyright : riperrr [RG Allfilms *другой трекер*]
   Video #0
      ID : 0
      Format : MPEG-4 Visual
      Format profile : Advanced Simple@L5
      Format settings, BVOP : 1
      Format settings, QPel : No
      Format settings, GMC : No warppoints
      Format settings, Matrix : Custom
      Codec ID : XVID
      Codec ID/Hint : XviD
      Duration : 1h 27mn
      Bit rate : 1 056 Kbps
      Width : 672 pixels
      Height : 368 pixels
      Display aspect ratio : 1.85:1
      Frame rate : 25.000 fps
      Color space : YUV
      Chroma subsampling : 4:2:0
      Bit depth : 8 bits
      Scan type : Progressive
      Compression mode : Lossy
      Bits/(Pixel*Frame) : 0.171
      Stream size : 659 MiB (88%)
      Writing library : XviD 65
   Audio #1
      ID : 1
      Format : MPEG Audio
      Format version : Version 1
      Format profile : Layer 3
      Codec ID : 55
      Codec ID/Hint : MP3
      Duration : 1h 27mn
      Bit rate mode : Constant
      Bit rate : 128 Kbps
      Channel(s) : 2 channels
      Sampling rate : 48.0 KHz
      Compression mode : Lossy
      Stream size : 79.9 MiB (11%)
      Alignment : Aligned on interleaves
      Interleave, duration : 40 ms (1.00 video frame)
      Interleave, preload duration : 504 ms
      Writing library : LAME3.98r
      Encoding settings : -m s -V 4 -q 0 -lowpass 17 -b 128
Семпл: http://multi-up.com/787356

picpicpicpicpicpicpicpicpicpicpicpic
Для увеличения картинки щелкните мышкой по превью

Этот торрент недоступен для скачивания без регистрации, однако доступен по публичной magnet-ссылке (источники с публичных трекеров). Перед использованием ссылки прочтите, пожалуйста Пользовательское соглашение, а также как можно дольше оставайтесь на раздаче! Для того, чтобы скачать сам торрент-файл (который видит больше источников), а также для того, чтобы поблагодарить релизера, вам необходимо зарегистрироваться. Если регистрироваться лень - вы можете также попробовать скачать релиз по нашим партнерским ссылкам ниже.

[underverse.su].t21150.torrent
Трекер: Зарегистрирован   [ 07.11.2012 19:50 ]  

Статус: проверено (by garry at 07.11.2012 19:54)
Поблагодарили: 1 человек
Тип торрента: публичный - доступные источники с открытых трекеров: 
Размер: 745 MB (занимает 0,17 DVDR, для записи нужно 1 болванка DVDR/RW)
 
 

Яндекс.Метрика powered by Sphinx


В Н И М А Н И Е
Сайт не распространяет и не хранит электронные версии произведений, а лишь бесплатно и без коммерческой выгоды (не требуя взамен платы,
SMS и т.д.) предоставляет доступ к создаваемому пользователями каталогу ссылок на торрент-файлы, которые содержат только списки хеш-сумм.
Убедительная просьба с жалобами обращаться напрямую к пользователю, разместившему торрент файл.

Вверх