Loading...
Error

Охота на гауляйтера / Серии: 1-10(10) (Олег Базилов) [2012г, военная драма, SATRip]

Статистика раздачи
Размер:  6,03 GB   |    Зарегистрирован:  4 года   |    Скачан:  16 раз

Полного источника не было: 2 года

Сидов:  0  |  0 KB/s  ]   Личеров:  0  |  0 KB/s  ]

* - сиды/пиры с внешних источников

   
 
Автор Сообщение

nemos Пол:Муж

06-Ноя-2012 15:41



Год выпуска: 2012
Жанр: драма, военный
Страна: Россия
Режиссер: Олег Базилов
В ролях: Анастасия Заворотнюк, Наталья Фатеева, Мария Машкова, Лариса Лужина, Александр Дьяченко, Александр Кашперов, Павел Трубинер, Сергей Юшкевич, Петр Томашевский, Ирина Бякова
Сюжет фильма:
Минск 1970 год. Торжественное заседание посвященное награждению комсомола Белорусской ССР орденом Ленина. В президиуме на почетном месте пожилая женщина. Это герой Великой Отечественной войны — Мария Архипова.

Открыть собрание предоставляется еще одному почетному гостю, Герою Советского Союза Галине Помазан — несмотря на доблестную военную биографию — все еще эффектной, моложавой женщине. Узнав о приезде Галины, курирующий собрание сотрудник госбезопасности приходит в панику — встреча Архиповой с Помазан крайне нежелательна. И на самом деле, во время пафосного рассказа Галины о казни палача белорусского народа — гауляйтера Вильгельма Краубе, Архипова не смогла сдержать гнев и набросилась на докладчицу. Очевидно, что есть еще одна неофициальная версия ликвидации гауляйтера, исполнительницами которой являлись две советские женщины, сестры по оружию, коммунистка Архипова и беспартийная Помазан. Но КГБ тщательно скрывает все правдивые подробности этой операции — несомненно, на то есть серьёзные причины.


Качество видео: SatRip

Продолжительность: 00:50:00серия
Формат: AVI
Видео: XviD, 720x384 , 1502 kbps
Аудио: русский, MP3 2.0, 128 kbps

Код:

E:\ÑÊÀ×ÊÈ\Ñ underverse\Îõîòà íà ãàóëÿéòåðà\Ohota.na.Gauslayitera.10.avi
   General
      Complete name : E:\ÑÊÀ×ÊÈ\Ñ underverse\Îõîòà íà ãàóëÿéòåðà\Ohota.na.Gauslayitera.10.avi
      Format : AVI
      Format/Info : Audio Video Interleave
      File size : 587 MiB
      Duration : 50mn 0s
      Overall bit rate : 1 640 Kbps
      Writing application : VirtualDubMod 1.5.10.2 (build 2540/release)
      Writing library : VirtualDub build 32842/release
   Video #0
      ID : 0
      Format : MPEG-4 Visual
      Format profile : Advanced Simple@L5
      Format settings, BVOP : 2
      Format settings, QPel : No
      Format settings, GMC : No warppoints
      Format settings, Matrix : Default (MPEG)
      Muxing mode : Packed bitstream
      Codec ID : XVID
      Codec ID/Hint : XviD
      Duration : 50mn 0s
      Bit rate : 1 502 Kbps
      Width : 720 pixels
      Height : 384 pixels
      Display aspect ratio : 1.85:1
      Frame rate : 25.000 fps
      Color space : YUV
      Chroma subsampling : 4:2:0
      Bit depth : 8 bits
      Scan type : Progressive
      Compression mode : Lossy
      Bits/(Pixel*Frame) : 0.217
      Stream size : 537 MiB (92%)
      Writing library : XviD 64
   Audio #1
      ID : 1
      Format : MPEG Audio
      Format version : Version 1
      Format profile : Layer 3
      Mode : Joint stereo
      Mode extension : MS Stereo
      Codec ID : 55
      Codec ID/Hint : MP3
      Duration : 50mn 0s
      Bit rate mode : Constant
      Bit rate : 128 Kbps
      Channel(s) : 2 channels
      Sampling rate : 48.0 KHz
      Compression mode : Lossy
      Stream size : 45.8 MiB (8%)
      Alignment : Aligned on interleaves
      Interleave, duration : 40 ms (1.00 video frame)
      Interleave, preload duration : 504 ms
Семпл: http://multi-up.com/786811
Внимание! Раздача ведётся путём добавления новых серий; при каждом добавлении создётся новый торрент. Чтобы начать докачку новой серии, пользователям необходимо сделать следующее:
(1) остановить скачивание,
(2) удалить старый торрент у себя из клиента (старые серии удалять не надо),
(3) скачать новый торрент и запустить его у себя в клиенте вместо старого, при этом указать клиенту путь в старую папку куда и должно происходить скачивание новых серий.
Ваш клиент при этом должен произвести хеширование (проверку) старой папки (если не производит сам - помогите ему сделать это), и будет докачивать только те серии которых у вас ещё нет. Старые серии при этом не удаляются, а продолжают раздаваться!
Eсли вы уже удалили старые серии, то предотвратить повторную закачку старых серий можно, отжав галочку в соответсвующих местах при запуске нового торрента. По возможности, желательно не удалять старые серии как можно дольше чтобы релизёр не столько продолжал раздавать старые серии, а смог сконцентрироваться на новых.
picpicpicpicpicpicpicpicpicpicpicpic
Для увеличения картинки щелкните мышкой по превью

Этот торрент недоступен для скачивания без регистрации, однако доступен по публичной magnet-ссылке (источники с публичных трекеров). Перед использованием ссылки прочтите, пожалуйста Пользовательское соглашение, а также как можно дольше оставайтесь на раздаче! Для того, чтобы скачать сам торрент-файл (который видит больше источников), а также для того, чтобы поблагодарить релизера, вам необходимо зарегистрироваться. Если регистрироваться лень - вы можете также попробовать скачать релиз по нашим партнерским ссылкам ниже.

[underverse.su].t21182.torrent
Трекер: Зарегистрирован   [ 09.11.2012 18:10 ]  

Статус: проверено (by garry at 09.11.2012 19:47)
Поблагодарили: 1 человек
Тип торрента: публичный - доступные источники с открытых трекеров: 
Размер: 6,03 GB (занимает 1,38 DVDR, для записи нужно 2 болванки DVDR/RW)
 
 
Похожие темы
Форум Тема Автор Торрент Отв. Посл. сооб.
xUSSR сериалы Охота на гауляйтера / Серии 1-10 (10) (Олег Базилов) [2012 г., военная драма, WEBDLRip] Чертёнок
1 | 0

0 | 347

15

17.07.2013 05:27

[18+] Хентай Охота на горничных | Huge Breasted Maid Hunt Sequel | Bakunyu Maid Kari | Bakunyuu Maid Gari, 1-2 of 2 (Tomi Tatsuyoshi, HotBear) [2009 г. Gangbang, Gigantic Breasts, Large Breasts, Maids, Rape,... Печаль'ka
0 | 0

0 | 702

29

20.08.2012 02:00



Последний раз редактировалось: nemos (06.11.2014 12:40), всего редактировалось 3 раз(а)

nemos Пол:Муж

07-Ноя-2012 18:49

Добавлены 4 и5 серии


Последний раз редактировалось: nemos (07.11.2012 19:00), всего редактировалось 1 раз

nemos Пол:Муж

08-Ноя-2012 15:47

Добавлены 6 и7серии

nemos Пол:Муж

09-Ноя-2012 18:11

Добавлены все серии,

Яндекс.Метрика powered by Sphinx


В Н И М А Н И Е
Сайт не распространяет и не хранит электронные версии произведений, а лишь бесплатно и без коммерческой выгоды (не требуя взамен платы,
SMS и т.д.) предоставляет доступ к создаваемому пользователями каталогу ссылок на торрент-файлы, которые содержат только списки хеш-сумм.
Убедительная просьба с жалобами обращаться напрямую к пользователю, разместившему торрент файл.

Вверх