Loading...
Error

Личные обстоятельства / Серии: 1-8(8) (Алексей Лебедев) [2012, Мелодрама, криминал, SATRip]

Статистика раздачи
Размер:  4,32 GB   |    Зарегистрирован:  4 года 1 месяц   |    Скачан:  7 раз

Полного источника не было: 2 месяца 28 дней

Сидов:  0  |  0 KB/s  ]   Личеров:  0  |  0 KB/s  ]

* - сиды/пиры с внешних источников

   
 
Автор Сообщение

nemos Пол:Муж

05-Ноя-2012 18:55

Личные обстоятельства


Год выпуска: 2012
Жанр: Мелодрама, криминал
Страна: Россия
Режиссер: Алексей Лебедев
В ролях: Владимир Меньшов, Олеся Судзиловская, Андрей Соколов, Валентина Лукащук, Игорь Николаев, Неля Попова, Иван Краско, Филипп Чевычелов, Ирина Сотикова, Татьяна Ткач
Сюжет фильма:
Врач Герман Кузнецов становится свидетелем ДТП: пьяная дочь олигарха Сундукова врезается в стоящую на перекрестке легковушку. Двое погибших, 8-летнюю девочку после помощи Германа в тяжелом состоянии отправляют в больницу.

Пытаясь осадить наглую виновницу аварии, Кузнецов срывается и бьет девицу по лицу. Полиция составляет протокол. Один из свидетелей, трагедии мотоциклист Вася снимает все происходящее на мобильный телефон и через час выкладывает свой репортаж в Интернете.

Кузнецов как обычно продолжает заниматься своей медициной, но вечером следующего дня, его похищают охранники Сундукова…


Качество видео: SatRip

Продолжительность: ~00:50:31 серия
Формат: AVI
Видео: DivX, 720x400, 1388 kbps
Аудио: русский, MP3 2.0, 128 kbps

Код:

E:\ÑÊÀ×ÊÈ\Ñ underverse\Ëè÷íûå îáñòîÿòåëüñòâà\8 ñåðèÿ.avi
   General
      Complete name : E:\ÑÊÀ×ÊÈ\Ñ underverse\Ëè÷íûå îáñòîÿòåëüñòâà\8 ñåðèÿ.avi
      Format : AVI
      Format/Info : Audio Video Interleave
      File size : 551 MiB
      Duration : 50mn 31s
      Overall bit rate : 1 526 Kbps
      Writing application : VirtualDubMod 1.5.10.3 | www.virtualdub-fr.org || (build 2550/release)
      Writing library : VirtualDubMod build 2550/release
   Video #0
      ID : 0
      Format : MPEG-4 Visual
      Format profile : Advanced Simple@L5
      Format settings, BVOP : 2
      Format settings, QPel : No
      Format settings, GMC : No warppoints
      Format settings, Matrix : Default (MPEG)
      Codec ID : DX50
      Codec ID/Hint : DivX 5
      Duration : 50mn 31s
      Bit rate : 1 388 Kbps
      Width : 720 pixels
      Height : 400 pixels
      Display aspect ratio : 16:9
      Frame rate : 25.000 fps
      Color space : YUV
      Chroma subsampling : 4:2:0
      Bit depth : 8 bits
      Scan type : Progressive
      Compression mode : Lossy
      Bits/(Pixel*Frame) : 0.193
      Stream size : 502 MiB (91%)
      Writing library : XviD 1.2.1 (UTC 2008-12-04)
   Audio #1
      ID : 1
      Format : MPEG Audio
      Format version : Version 1
      Format profile : Layer 3
      Codec ID : 55
      Codec ID/Hint : MP3
      Duration : 50mn 31s
      Bit rate mode : Constant
      Bit rate : 128 Kbps
      Channel(s) : 2 channels
      Sampling rate : 48.0 KHz
      Compression mode : Lossy
      Stream size : 46.3 MiB (8%)
      Alignment : Aligned on interleaves
      Interleave, duration : 40 ms (1.00 video frame)
      Interleave, preload duration : 504 ms
      Writing library : L3.99r
      Encoding settings : -m s -V 4 -q 2 -lowpass 17 -b 128
Семпл: http://multi-up.com/786461

picpicpicpicpicpicpicpicpicpicpic
Для увеличения картинки щелкните мышкой по превью

Этот торрент недоступен для скачивания без регистрации, однако доступен по публичной magnet-ссылке (источники с публичных трекеров). Перед использованием ссылки прочтите, пожалуйста Пользовательское соглашение, а также как можно дольше оставайтесь на раздаче! Для того, чтобы скачать сам торрент-файл (который видит больше источников), а также для того, чтобы поблагодарить релизера, вам необходимо зарегистрироваться. Если регистрироваться лень - вы можете также попробовать скачать релиз по нашим партнерским ссылкам ниже.

[underverse.su].t21115.torrent
Трекер: Зарегистрирован   [ 05.11.2012 18:55 ]  

Статус: проверено (by garry at 05.11.2012 20:38)
Поблагодарили: 1 человек
Тип торрента: публичный - доступные источники с открытых трекеров: 
Размер: 4,32 GB (занимает 0,99 DVDR, для записи нужно 1 болванка DVDR/RW)
 
 

Яндекс.Метрика powered by Sphinx


В Н И М А Н И Е
Сайт не распространяет и не хранит электронные версии произведений, а лишь бесплатно и без коммерческой выгоды (не требуя взамен платы,
SMS и т.д.) предоставляет доступ к создаваемому пользователями каталогу ссылок на торрент-файлы, которые содержат только списки хеш-сумм.
Убедительная просьба с жалобами обращаться напрямую к пользователю, разместившему торрент файл.

Вверх