Loading...
Error

Преступление по наследству / Серии: 1-8 (8) (Эдуард Реджепов) [2012 г., Детектив, приключения, SATRip]

Статистика раздачи
Размер:  4,11 GB   |    Зарегистрирован:  4 года   |    Скачан:  8 раз

Полного источника не было: 2 года

Сидов:  0  |  0 KB/s  ]   Личеров:  0  |  0 KB/s  ]

* - сиды/пиры с внешних источников

   
 
Автор Сообщение

nemos Пол:Муж

05-Ноя-2012 17:25

Преступление по наследству


Год выпуска: 2012
Жанр: Детектив, приключения
Страна: Россия
Режиссер: Эдуард Реджепов
В ролях: Олеся Фаттахова, Влад Канопка, Людмила Полякова, Людмила Чурсина, Михаил Гаврилов, Татьяна Демидова, Виталий Кудрявцев, Юрий Мосейчук, Александр Числов, Тимофей Смирнов
Сюжет фильма:
Анины планы на лето изменились в одночасье. Вместо веселой студенческой практики в Крыму, она едет в подмосковное садовое товарищество «Советский геолог», где умирает её дед-академик Ермолаев. Перед смертью дед умоляет её доказать всем, что он не виноват в смерти двух своих самых близких друзей.

Дед произносит странное слово — «Канкара» — и умирает, а Аня решает во всем разобраться. Девушка даже не подозревает, что ей придется не только погрузиться в события далекого 1966 года, но и подвергнуться смертельной опасности. Только так она сможет разгадать тайну речки Канкара…


Качество видео: SatRip

Продолжительность: ~ 00:44:12 серия
Формат: AVI
Видео: XviD, 720x384, 1549 kbps
Аудио: русский, MP3 2.0, 128 kbps

Код:

D:\ÑÊÀ×ÊÈ-2\c NO NA MEèÊÈÍÎÇÀË òâ\Prestupleniye.po.nasledstvu.2012.XviD.SATRip.Files-x\Prestupleniye.po.nasledstvu.(8seriya.iz.8).2012.XviD.SATRip.Files-x.avi
   General
      Complete name : D:\ÑÊÀ×ÊÈ-2\c NO NA MEèÊÈÍÎÇÀË òâ\Prestupleniye.po.nasledstvu.2012.XviD.SATRip.Files-x\Prestupleniye.po.nasledstvu.(8seriya.iz.8).2012.XviD.SATRip.Files-x.avi
      Format : AVI
      Format/Info : Audio Video Interleave
      File size : 533 MiB
      Duration : 44mn 12s
      Overall bit rate : 1 687 Kbps
      Writing application : VirtualDubModRus 1.5.10.2 (build 2542/release)
      Writing library : VirtualDubMod build 2542/release
   Video #0
      ID : 0
      Format : MPEG-4 Visual
      Format profile : Simple@L3
      Format settings, BVOP : No
      Format settings, QPel : No
      Format settings, GMC : No warppoints
      Format settings, Matrix : Default (H.263)
      Codec ID : XVID
      Codec ID/Hint : XviD
      Duration : 44mn 12s
      Bit rate : 1 549 Kbps
      Width : 720 pixels
      Height : 384 pixels
      Display aspect ratio : 1.222
      Original display aspect ratio : 1.85:1
      Frame rate : 25.000 fps
      Color space : YUV
      Chroma subsampling : 4:2:0
      Bit depth : 8 bits
      Scan type : Progressive
      Compression mode : Lossy
      Bits/(Pixel*Frame) : 0.224
      Stream size : 490 MiB (92%)
      Writing library : XviD 64
   Audio #1
      ID : 1
      Format : MPEG Audio
      Format version : Version 1
      Format profile : Layer 3
      Mode : Joint stereo
      Codec ID : 55
      Codec ID/Hint : MP3
      Duration : 44mn 12s
      Bit rate mode : Constant
      Bit rate : 128 Kbps
      Channel(s) : 2 channels
      Sampling rate : 48.0 KHz
      Compression mode : Lossy
      Stream size : 40.5 MiB (8%)
      Alignment : Split accross interleaves
      Interleave, duration : 40 ms (1.00 video frame)
      Interleave, preload duration : 500 ms
Семпл: http://multi-up.com/786425

picpicpic
Для увеличения картинки щелкните мышкой по превью

Этот торрент недоступен для скачивания без регистрации, однако доступен по публичной magnet-ссылке (источники с публичных трекеров). Перед использованием ссылки прочтите, пожалуйста Пользовательское соглашение, а также как можно дольше оставайтесь на раздаче! Для того, чтобы скачать сам торрент-файл (который видит больше источников), а также для того, чтобы поблагодарить релизера, вам необходимо зарегистрироваться. Если регистрироваться лень - вы можете также попробовать скачать релиз по нашим партнерским ссылкам ниже.

[underverse.su].t21111.torrent
Трекер: Зарегистрирован   [ 05.11.2012 17:30 ]  

Статус: проверено (by garry at 05.11.2012 18:09)
Поблагодарили: 1 человек
Тип торрента: публичный - доступные источники с открытых трекеров: 
Размер: 4,11 GB (занимает 0,94 DVDR, для записи нужно 1 болванка DVDR/RW)
 
 
Похожие темы
Форум Тема Автор Торрент Отв. Посл. сооб.
Зарубежное кино [DVDRip, Low-Res HDRip, и т.д.] Преступления сладострастия / Crimenes de Lujuria (Уолтер Доэхнер) [2011 г., триллер, HDRip] MVO 90ytr90
0 | 0

0 | 1101

16

07.05.2013 19:23

? Зарубежные сериалы Преступления Шеф-Повара / I Delitti Del Cuoco / Серии: 6 (Alessandro Capone) [2009, Италия, детективно-комедийный, TVRip] (Alessandro Capone) [2009 г., детективно-комедийный, TVRip] qwerty379tt
0 | 0

1 | 646

2

29.01.2014 20:40

Другие фильмы Преступления страсти (1-20 серии из 20) [2016 г., документальный, мелодрама, криминал, реконструкция, WEB-DLRip] ARI71
2 | 0

1 | 1585

3

24.05.2016 20:09

xUSSR сериалы [BD / Remux / BDRip / WEB-DL / HDTV 1080/720р] Преступление в фокусе (1-4 серии из 4) (Анатолий Григорьев) [2014 г., Боевик, WEB-DL 1080p] viktor.r-79
0 | 0

0 | 923

27

09.11.2014 10:08



Последний раз редактировалось: nemos (10.11.2012 08:02), всего редактировалось 5 раз(а)

garry Пол:Муж

05-Ноя-2012 17:26

Цитата:

Преступление по наследству/Серии:1-8( 8)( Эдуард Реджепов)[2012г,Приключения, боевик,SATRip]
есть такая клавиша "пробел"...

Яндекс.Метрика powered by Sphinx


В Н И М А Н И Е
Сайт не распространяет и не хранит электронные версии произведений, а лишь бесплатно и без коммерческой выгоды (не требуя взамен платы,
SMS и т.д.) предоставляет доступ к создаваемому пользователями каталогу ссылок на торрент-файлы, которые содержат только списки хеш-сумм.
Убедительная просьба с жалобами обращаться напрямую к пользователю, разместившему торрент файл.

Вверх