Loading...
Error

Храбрая сердцем / Brave (Марк Эндрюс, Бренда Чэпман, Стив Пурселл) [2012 г., мультфильм, фэнтези, комедия, приключения, семейный, HDRip] Dub HQ Underverse

Статистика раздачи
Размер:  1,45 GB   |    Зарегистрирован:  4 года   |    Скачан:  142 раза

Полного источника не было: 15 дней

Сидов:  0  |  0 KB/s  ]   Личеров:  0  |  0 KB/s  ]

* - сиды/пиры с внешних источников

   
 
Автор Сообщение

HQ Underverse 

05-Ноя-2012 15:40

Храбрая сердцем / Brave


Год выпуска: 2012
Жанр: мультфильм, фэнтези, комедия, приключения, семейный
Страна: США
Режиссер: Марк Эндрюс, Бренда Чэпман, Стив Пурселл
Роли озвучивали: Келли Макдоналд, Эмма Томпсон, Билли Коннолли, Джули Уолтерс, Робби Колтрейн, Кевин МакКидд, Крэйг Фергюсон, Сэлли Кингхорн, Эйлид Фрайзер, Пейджи Баркер
Сюжет фильма:
Испокон веков мифы и легенды окутывают загадочной пеленой живописные отроги Шотландских гор. Искусной лучнице Мериде приходится выбирать свой путь в жизни самостоятельно, и однажды она отказывается следовать древним традициям королевства, бросая вызов могущественным шотландским кланам и их предводителям: нескладному лорду МакГаффину, угрюмому лорду Макинтошу и сварливому лорду Дингволлу. Неосторожные поступки Мериды грозят повергнуть королевство в хаос, и тогда она отправляется за советом к эксцентричной отшельнице, которая вместо помощи накладывает на Мериду опасное заклятье. Юной принцессе предстоит полагаться только на собственную храбрость, чтобы преодолеть могущественное волшебство и победить самого страшного зверя из тех, что водятся в горных долинах.

Качество видео: HDRip

Продолжительность: 01:33:37
Формат: avi
Видео: XviD, 720x304, 1821 kbps
Аудио: русский, дублированный [лицензия], AC3 5.1, 384 kbps
Аудио: украинский, дублированный [лицензия], AC3 5.1, 448 kbps (отдельно)
Аудио: английский, оригинал, AC3 5.1, 448 kbps (отдельно)
Субтитры #1: внешние, SRT, английский, SDH
Субтитры #2: внешние, SRT, русский
Субтитры #3: внешние, SRT, украинский

Код:

General
Complete name                            : D:\Video\Movies\Releases\Brave.2012.HDRip.XviD.AC3.Rus.D.HQ.Underverse.avi
Format                                   : AVI
Format/Info                              : Audio Video Interleave
File size                                : 1.45 GiB
Duration                                 : 1h 33mn
Overall bit rate                         : 2 215 Kbps
Writing application                      : VirtualDubMod 1.5.10.2 (build 2540/release)
Writing library                          : VirtualDubMod build 2540/release

Video
ID                                       : 0
Format                                   : MPEG-4 Visual
Format profile                           : Advanced Simple@L5
Format settings, BVOP                    : 1
Format settings, QPel                    : No
Format settings, GMC                     : No warppoints
Format settings, Matrix                  : Custom
Muxing mode                              : Packed bitstream
Codec ID                                 : XVID
Codec ID/Hint                            : XviD
Duration                                 : 1h 33mn
Bit rate                                 : 1 822 Kbps
Width                                    : 720 pixels
Height                                   : 304 pixels
Display aspect ratio                     : 2.35:1
Frame rate                               : 23.976 fps
Color space                              : YUV
Chroma subsampling                       : 4:2:0
Bit depth                                : 8 bits
Scan type                                : Progressive
Compression mode                         : Lossy
Bits/(Pixel*Frame)                       : 0.347
Stream size                              : 1.19 GiB (82%)
Writing library                          : XviD 64

Audio
ID                                       : 1
Format                                   : AC-3
Format/Info                              : Audio Coding 3
Mode extension                           : CM (complete main)
Format settings, Endianness              : Big
Codec ID                                 : 2000
Duration                                 : 1h 33mn
Bit rate mode                            : Constant
Bit rate                                 : 384 Kbps
Channel(s)                               : 6 channels
Channel positions                        : Front: L C R, Side: L R, LFE
Sampling rate                            : 48.0 KHz
Bit depth                                : 16 bits
Compression mode                         : Lossy
Stream size                              : 257 MiB (17%)
Alignment                                : Split accross interleaves
Interleave, duration                     : 42 ms (1.00 video frame)
Interleave, preload duration             : 500 ms
Title                                    : Brave.2012.Rus.D.AC3.5.1.384.kbps.ac3
Семпл: http://multi-up.com/791238

Релиз группы:

picpicpic
Для увеличения картинки щелкните мышкой по превью

Этот торрент недоступен для скачивания без регистрации, однако доступен по публичной magnet-ссылке (источники с публичных трекеров). Перед использованием ссылки прочтите, пожалуйста Пользовательское соглашение, а также как можно дольше оставайтесь на раздаче! Для того, чтобы скачать сам торрент-файл (который видит больше источников), а также для того, чтобы поблагодарить релизера, вам необходимо зарегистрироваться. Если регистрироваться лень - вы можете также попробовать скачать релиз по нашим партнерским ссылкам ниже.

[underverse.su].t21108.torrent
Трекер: Зарегистрирован   [ 16.11.2012 22:36 ]  

Статус: проверено (by HQ Underverse at 16.11.2012 22:38)
Поблагодарили: 12 человек
Тип торрента: публичный - доступные источники с открытых трекеров: 
Размер: 1,45 GB (занимает 1/3 DVDR, для записи нужно 1 болванка DVDR/RW)
 
 
Похожие темы
Форум Тема Автор Торрент Отв. Посл. сооб.
Зарубежные мультфильмы Храбрая сердцем / Brave (Марк Эндрюс, Бренда Чэпман, Стив Пурселл) [2012 г., мультфильм, фэнтези, комедия, приключения, семейный, DVBRip] Dub RG NewCinema
1 | 0

1 | 10708

146

01.11.2012 16:36

Зарубежные мультфильмы Храбрая сердцем / Brave (Марк Эндрюс, Бренда Чэпман, Стив Пурселл) [2012 г., мультфильм, фэнтези, комедия, приключения, семейный, HDRip] [звук с НТВ+] 90ytr90
10 | 0

0 | 10257

165

02.11.2012 19:24

Зарубежные мультфильмы Храбрая сердцем / Brave (Марк Эндрюс, Бренда Чэпман, Стив Пурселл) [2012 г., мультфильм, фэнтези, приключения, семейный, HDRip] Dub + AVO (Живов) + AVO (Визгунов) 90ytr90
14 | 0

0 | 740

27

19.01.2014 18:22

Игры Храбрая сердцем [2012 г., Детская игра] RUS [L] djonkomi
0 | 0

2 | 14127

9

05.06.2013 04:58

Мультфильмы [DVD / HDDVD / BD / Remux] Храбрая сердцем / Brave (Марк Эндрюс, Бренда Чэпман, Стив Пурселл) [2012 г., мультфильм, фэнтези, комедия, приключения, семейный, BDRemux 1080p] (Локализованный видеоряд) Dub + 3xAVO (Живов, Сербин,... uzi2009
25 | 0

0 | 877

7

15.09.2014 08:55

Мультфильмы [HDDVDRip / BDRip / WEB-DL / HDTV 1080/720р] Храбрая сердцем / Brave (Марк Эндрюс, Бренда Чэпман, Стив Пурселл) [2012 г., мультфильм, фэнтези, комедия, приключения, семейный, BDRip 720p] Dub + Original Чертёнок
4 | 0

0 | 10026

27

02.04.2013 19:48

Мультфильмы [HDDVDRip / BDRip / WEB-DL / HDTV 1080/720р] Храбрая сердцем в 3D / Brave in 3D (Марк Эндрюс Бренда Чэпман Стив Пурселл) [2012 г., мультфильм, фэнтези, комедия, приключения, семейный, BDRip 1080p ] Dub Anaglyph (Дюбуа) slaventi-69
0 | 0

0 | 10237

0

25.05.2013 10:07

HQ Underverse 

16-Ноя-2012 22:38

замена на лицензию

rss 

27-Ноя-2012 12:53

:good: хороший мультик. ходили с малыми на 3-ДЭ, им понравился.

90ytr90 

25-Фев-2013 14:21


Оскар, 2013 год
Победитель (1):
Лучший анимационный фильм


Золотой глобус, 2013 год
Победитель (1):
Лучший анимационный фильм


Британская академия, 2013 год
Победитель (1):
Лучший анимационный фильм

passer-by Пол:Муж

19-Окт-2013 00:39

!.

Яндекс.Метрика powered by Sphinx


В Н И М А Н И Е
Сайт не распространяет и не хранит электронные версии произведений, а лишь бесплатно и без коммерческой выгоды (не требуя взамен платы,
SMS и т.д.) предоставляет доступ к создаваемому пользователями каталогу ссылок на торрент-файлы, которые содержат только списки хеш-сумм.
Убедительная просьба с жалобами обращаться напрямую к пользователю, разместившему торрент файл.

Вверх