Loading...
Error

Под солнцем Тосканы / Under the Tuscan Sun (Одри Уэллс) [2003 г., драма, мелодрама, комедия, BDRip] DVO

Статистика раздачи
Размер:  1,46 GB   |    Зарегистрирован:  4 года 1 месяц   |    Скачан:  14 раз
Сидов:  1  |  0 KB/s  ]   Личеров:  0  |  0 KB/s  ]

* - сиды/пиры с внешних источников

   
 
Автор Сообщение

NiiggazCPT 

03-Ноя-2012 08:01

Под солнцем Тосканы / Under the Tuscan Sun


Год выпуска: 2003
Жанр: драма, мелодрама, комедия
Страна: США , Италия
Режиссер: Одри Уэллс
В ролях: Дайан Лэйн (Frances), Сандра О (Patti), Линдсэй Дункан (Katherine), Рауль Бова (Marcello), Винсент Риотта (Martini), Марио Моничелли (Old Man with Flowers), Роберто Нобиле (Placido), Анита Дзагария (Fiorella), Эвелина Гори (Nona Cardinale), Джулия Стайгерволт (Chiara), Павел Жайда (Pawel), Валентин Пелка (Jerzy)
Сюжет фильма:
Тяжело переживая развод с мужем, писательница Фрэнсис Мэйс медленно погружается в пучину депрессии. Душевный кризис перетекает в творческий. Опустошенная и разбитая, Фрэнсис все же поддается на уговоры подруги и едет развеяться в Италию. Происходит настоящее чудо!
Ласковое южное солнце пробуждает в очарованной красотой Тосканы Фрэнсис страстное желание начать новую жизнь - именно здесь, в этом теплом и дружелюбном краю. Первым делом она покупает себе старинную виллу. Вторым - заводит новые знакомства. И она еще не ведает, что третье вскоре найдет ее само. И это будет новая, всепоглощающая любовь...

  • Мировая премьера: 20 сентября 2003


Качество видео: BDRip

Продолжительность: 01:52:41
Формат: AVI
Видео: XviD, 704x384, 1650 kbps
Аудио: русский, двухголосый закадровый [профессиональный], AC3 2.0, 192 kbps

Семпл: http://narod.ru/disk/63290240001.e662a7d2c1c8e23987...llFilms.avi.html

Код:

General
Complete name                    : D:\Download\Pod.solncem.Toskany.2003.XviD.BDRip.-AllFilms.avi
Format                           : AVI
Format/Info                      : Audio Video Interleave
File size                        : 1.46 GiB
Duration                         : 1h 52mn
Overall bit rate                 : 1 852 Kbps
Movie name                       : Под солнцем Тосканы / Under the Tuscan Sun [2003] BDRip
Director                         : Юpист
Genre                            : мелодрама
Writing application              : VirtualDubMod 1.5.10.3 | www.virtualdub-fr.org || (build 2550/release)
Writing library                  : VirtualDubMod build 2550/release
Copyright                        : RG All films [*другой трекер*]

Video
ID                               : 0
Format                           : MPEG-4 Visual
Format profile                   : Advanced Simple@L5
Format settings, BVOP            : 1
Format settings, QPel            : No
Format settings, GMC             : No warppoints
Format settings, Matrix          : Custom
Codec ID                         : DX50
Codec ID/Hint                    : DivX 5
Duration                         : 1h 52mn
Bit rate                         : 1 577 Kbps
Width                            : 704 pixels
Height                           : 384 pixels
Display aspect ratio             : 16:9
Frame rate                       : 23.976 fps
Color space                      : YUV
Chroma subsampling               : 4:2:0
Bit depth                        : 8 bits
Scan type                        : Progressive
Compression mode                 : Lossy
Bits/(Pixel*Frame)               : 0.243
Stream size                      : 1.24 GiB (85%)
Writing library                  : XviD 73

Audio
ID                               : 1
Format                           : AC-3
Format/Info                      : Audio Coding 3
Mode extension                   : CM (complete main)
Codec ID                         : 2000
Duration                         : 1h 52mn
Bit rate mode                    : Constant
Bit rate                         : 192 Kbps
Channel(s)                       : 2 channels
Channel positions                : Front: L R
Sampling rate                    : 48.0 KHz
Bit depth                        : 16 bits
Compression mode                 : Lossy
Stream size                      : 155 MiB (10%)
Alignment                        : Split accross interleaves
picpicpic
Для увеличения картинки щелкните мышкой по превью

Этот торрент недоступен для скачивания без регистрации, однако доступен по публичной magnet-ссылке (источники с публичных трекеров). Перед использованием ссылки прочтите, пожалуйста Пользовательское соглашение, а также как можно дольше оставайтесь на раздаче! Для того, чтобы скачать сам торрент-файл (который видит больше источников), а также для того, чтобы поблагодарить релизера, вам необходимо зарегистрироваться. Если регистрироваться лень - вы можете также попробовать скачать релиз по нашим партнерским ссылкам ниже.

[underverse.su].t21044.torrent
Трекер: Зарегистрирован   [ 03.11.2012 08:01 ]  

Статус: проверено (by garry at 03.11.2012 10:55)
Поблагодарили: 1 человек
Тип торрента: публичный - доступные источники с открытых трекеров: 
Размер: 1,46 GB (занимает 1/3 DVDR, для записи нужно 1 болванка DVDR/RW)
 
 
Похожие темы
Форум Тема Автор Торрент Отв. Посл. сооб.
Зарубежное кино [HDDVDRip / BDRip / WEB-DL / HDTV 1080/720р] Под солнцем Тосканы / Under the Tuscan Sun (Одри Уэллс) [2003 г., драма, мелодрама, комедия, BDRip 720p] 3xRus + Original garry
21 | 1

0 | 978

8

10.11.2012 15:51



Последний раз редактировалось: NiiggazCPT (03.11.2012 09:43), всего редактировалось 1 раз

Яндекс.Метрика powered by Sphinx


В Н И М А Н И Е
Сайт не распространяет и не хранит электронные версии произведений, а лишь бесплатно и без коммерческой выгоды (не требуя взамен платы,
SMS и т.д.) предоставляет доступ к создаваемому пользователями каталогу ссылок на торрент-файлы, которые содержат только списки хеш-сумм.
Убедительная просьба с жалобами обращаться напрямую к пользователю, разместившему торрент файл.

Вверх