Loading...
Error

Наружное наблюдение / Серии: 1-24 (24) (Юрий Нифонтов) [2012, детектив, SATRip]

Статистика раздачи
Размер:  12,1 GB   |    Зарегистрирован:  2 года 10 месяцев   |    Скачан:  10 раз

Полного источника не было: 1 год 3 месяца

Сидов:  0  |  0 KB/s  ]   Личеров:  0  |  0 KB/s  ]

* - сиды/пиры с внешних источников

   
 
Автор Сообщение

nemos Пол:Муж

02-Ноя-2012 15:39



Год выпуска: 2012
Жанр: детектив
Страна: Россия
Режиссер: Феликс Герчиков, Игорь Копылов, Юрий Нифонтов
В ролях: Сергей Горобченко, Даниил Страхов, Максим Дрозд, Сергей Перегудов, Дмитрий Кочкин, Владимир Бирюков, Илья Любимов, Алексей Величко, Олег Волков, Евгений Катаев
Сюжет фильма:
Сериал заглянет в закулисье одной из старейших российских спецслужб, знаменитой «семёрки» МВД, «наружки», оперативно-поискового управления ГУВД.

Это секретная служба внутри системы МВД, её разведка, её глаза и уши. Герои нашей истории — настоящие профессионалы, влюблённые в своё дело, борцы с преступностью. Им противостоят опытные, хитрые, имеющие связи в высших эшелонах власти преступники, которые, сняв «треники», надели костюмы от «Бриони», и стали добропорядочными коммерсантами. Таков вор в законе Ребус, перебравшийся в Питер с «северов» — Сибирь оказалась слишком мала для масштабов Ребуса, и он присмотрел для себя «лакомый кусок» в северной столице.

И всё бы получилось, если бы в дело не вмешался экипаж 735… Главная героиня сериала, Полина Ольховская теряет любимого человека — сотрудник «наружки» Антон Гурьев был убит при слежке за неуловимым киллером по кличке Ташкент. Полина решает встать на путь мести, не подозревая, что он станет для неё дорогой потерь.


Качество видео: SatRip

Продолжительность: ~ 00:43:33 серия
Формат: AVI
Видео: Xvid, 720x400, 1 472 kbps
Аудио: русский, MP3 2.0, 192 kbps

Код:

D:\С underverse-3 Фильмы\Naruzhnoe_nabludenie\Naruzhnoe.nabludenie.24.avi
   General
      Complete name : D:\С underverse-3 Фильмы\Naruzhnoe_nabludenie\Naruzhnoe.nabludenie.24.avi
      Format : AVI
      Format/Info : Audio Video Interleave
      File size : 522 MiB
      Duration : 43mn 33s
      Overall bit rate : 1 674 Kbps
      Writing library : VirtualDub build 32842/release
   Video #0
      ID : 0
      Format : MPEG-4 Visual
      Format profile : Advanced Simple@L5
      Format settings, BVOP : 2
      Format settings, QPel : No
      Format settings, GMC : No warppoints
      Format settings, Matrix : Default (H.263)
      Muxing mode : Packed bitstream
      Codec ID : XVID
      Codec ID/Hint : XviD
      Duration : 43mn 33s
      Bit rate : 1 472 Kbps
      Width : 720 pixels
      Height : 400 pixels
      Display aspect ratio : 16:9
      Frame rate : 25.000 fps
      Color space : YUV
      Chroma subsampling : 4:2:0
      Bit depth : 8 bits
      Scan type : Progressive
      Compression mode : Lossy
      Bits/(Pixel*Frame) : 0.205
      Stream size : 459 MiB (88%)
      Writing library : XviD 64
   Audio #1
      ID : 1
      Format : MPEG Audio
      Format version : Version 1
      Format profile : Layer 3
      Mode : Joint stereo
      Mode extension : MS Stereo
      Codec ID : 55
      Codec ID/Hint : MP3
      Duration : 43mn 33s
      Bit rate mode : Constant
      Bit rate : 192 Kbps
      Channel(s) : 2 channels
      Sampling rate : 48.0 KHz
      Compression mode : Lossy
      Stream size : 59.8 MiB (11%)
      Alignment : Split accross interleaves
      Interleave, duration : 40 ms (1.00 video frame)
      Interleave, preload duration : 500 ms
Семпл: http://multi-up.com/784340

picpicpicpic
Для увеличения картинки щелкните мышкой по превью

Этот торрент недоступен для скачивания без регистрации, однако доступен по публичной magnet-ссылке (источники с публичных трекеров). Перед использованием ссылки прочтите, пожалуйста Пользовательское соглашение, а также как можно дольше оставайтесь на раздаче! Для того, чтобы скачать сам торрент-файл (который видит больше источников), а также для того, чтобы поблагодарить релизера, вам необходимо зарегистрироваться. Если регистрироваться лень - вы можете также попробовать скачать релиз по нашим партнерским ссылкам ниже.

[underverse.su].t35186.torrent
Трекер: Зарегистрирован   [ 13.01.2014 14:37 ]  

Статус: # сомнительно (by 90ytr90 at 13.01.2014 16:06)
Поблагодарили: 2 человека
Тип торрента: публичный - доступные источники с открытых трекеров: 
Размер: 12,1 GB (занимает 2,76 DVDR, для записи нужно 3 болванки DVDR/RW)
 
 
Похожие темы
Форум Тема Автор Торрент Отв. Посл. сооб.
xUSSR сериалы Наружное наблюдение / Серии 1-24 (24) (Юрий Нифонтов) [2012 г., Детектив, DVDRip] Чертёнок
0 | 7

0 | 815

24

19.05.2013 15:47



Последний раз редактировалось: nemos (06.11.2014 09:18), всего редактировалось 9 раз(а)

ALEKSANDR288Пол:Муж

02-Ноя-2012 16:07

Совсем скорости нет

nemos Пол:Муж

13-Янв-2014 14:39

Торрент обновлён! Добавлены последние серии.

Яндекс.Метрика powered by Sphinx


В Н И М А Н И Е
Сайт не распространяет и не хранит электронные версии произведений, а лишь бесплатно и без коммерческой выгоды (не требуя взамен платы,
SMS и т.д.) предоставляет доступ к создаваемому пользователями каталогу ссылок на торрент-файлы, которые содержат только списки хеш-сумм.
Убедительная просьба с жалобами обращаться напрямую к пользователю, разместившему торрент файл.

Вверх