Loading...
Error

Братаны/Серии: 1 - 16(16)( Александр Мохов) [2009г, Боевик криминал, DVDRip]

Статистика раздачи
Размер:  7,82 GB   |    Зарегистрирован:  4 года 1 месяц   |    Скачан:  6 раз

Полного источника не было: 2 года

Сидов:  0  |  0 KB/s  ]   Личеров:  0  |  0 KB/s  ]

* - сиды/пиры с внешних источников

   
 
Автор Сообщение

nemos Пол:Муж

01-Ноя-2012 16:59



Год выпуска: 2009
Жанр: Боевик, криминал
Страна: Россия
Режиссер: Александр Мохов
В ролях: Алексей Кравченко, Сергей Селин, Дмитрий Дьяконов, Дарья Калмыкова, Анна Чиповская, Александр Мохов, Михаил Богдасаров, Владимир Зайцев, Борис Клюев, Саид Багов
Сюжет фильма:
История четырех друзей-десантников, которые по воле случая оказываются втянутыми в борьбу против преступной группировки, торгующей людьми. Сергей, Леня, Костя и Макар становятся свидетелями неприятной сцены: несколько парней пристают к молодым девчонкам.

Заступившись за девушек, друзья еще не подозревают, что за этими людьми стоит крупная отлаженная структура, занимающаяся торговлей людьми, продажей молодых девушек в секс-рабство.

С этого момента они уже не могут отступить назад. Им неоткуда ждать помощи, ведь с одной стороны коррумпированные сотрудники милиции и УБОПА, с другой — банда. Друзьям ничего не остается, как вступить в схватку и начать собственное расследование.


Качество видео: DVDRip

Продолжительность: 00:45:06серия
Формат: AVI
Видео: DivX, 704x352, 1 414 kbps
Аудио: русский, MP3 2.0, 128 kbps

Код:

E:\ÑÊÀ×ÊÈ\Ñ underverse\Bratanj.(1-16.serij.iz.16).2009.DivX.DVDRip.ELEKTRI4KA\Bratanj.16.serij.iz.16.2009.DivX.DVDRip.ELEKTRI4KA.avi
   General
      Complete name : E:\ÑÊÀ×ÊÈ\Ñ underverse\Bratanj.(1-16.serij.iz.16).2009.DivX.DVDRip.ELEKTRI4KA\Bratanj.16.serij.iz.16.2009.DivX.DVDRip.ELEKTRI4KA.avi
      Format : AVI
      Format/Info : Audio Video Interleave
      File size : 501 MiB
      Duration : 45mn 6s
      Overall bit rate : 1 552 Kbps
      Writing application : FairUse Wizard - http://fairusewizard.com
      Writing library : The best and REALLY easy backup tool
   Video #0
      ID : 0
      Format : MPEG-4 Visual
      Format settings, BVOP : 1
      Format settings, QPel : No
      Format settings, GMC : No warppoints
      Format settings, Matrix : Default (H.263)
      Muxing mode : Packed bitstream
      Codec ID : DX50
      Codec ID/Hint : DivX 5
      Duration : 45mn 6s
      Bit rate : 1 414 Kbps
      Width : 704 pixels
      Height : 352 pixels
      Display aspect ratio : 2.000
      Frame rate : 25.000 fps
      Color space : YUV
      Chroma subsampling : 4:2:0
      Bit depth : 8 bits
      Scan type : Progressive
      Compression mode : Lossy
      Bits/(Pixel*Frame) : 0.228
      Stream size : 456 MiB (91%)
      Writing library : DivX 6.8.5 (UTC 2009-08-20)
   Audio #1
      ID : 1
      Format : MPEG Audio
      Format version : Version 1
      Format profile : Layer 3
      Mode : Joint stereo
      Mode extension : MS Stereo
      Codec ID : 55
      Codec ID/Hint : MP3
      Duration : 45mn 6s
      Bit rate mode : Constant
      Bit rate : 128 Kbps
      Channel(s) : 2 channels
      Sampling rate : 48.0 KHz
      Compression mode : Lossy
      Stream size : 41.3 MiB (8%)
      Alignment : Aligned on interleaves
      Interleave, duration : 40 ms (1.00 video frame)
      Interleave, preload duration : 504 ms
      Writing library : LAME3.97b
      Encoding settings : -m j -V 4 -q 2 -lowpass 17 -b 128
Семпл: http://multi-up.com/783780

picpicpicpicpicpicpicpicpicpicpicpic
Для увеличения картинки щелкните мышкой по превью

Этот торрент недоступен для скачивания без регистрации, однако доступен по публичной magnet-ссылке (источники с публичных трекеров). Перед использованием ссылки прочтите, пожалуйста Пользовательское соглашение, а также как можно дольше оставайтесь на раздаче! Для того, чтобы скачать сам торрент-файл (который видит больше источников), а также для того, чтобы поблагодарить релизера, вам необходимо зарегистрироваться. Если регистрироваться лень - вы можете также попробовать скачать релиз по нашим партнерским ссылкам ниже.

[underverse.su].t20999.torrent
Трекер: Зарегистрирован   [ 01.11.2012 16:59 ]  

Статус: проверено (by garry at 01.11.2012 17:47)
Поблагодарили: 1 человек
Тип торрента: публичный - доступные источники с открытых трекеров: 
Размер: 7,82 GB (занимает 1,79 DVDR, для записи нужно 2 болванки DVDR/RW)
 
 

Яндекс.Метрика powered by Sphinx


В Н И М А Н И Е
Сайт не распространяет и не хранит электронные версии произведений, а лишь бесплатно и без коммерческой выгоды (не требуя взамен платы,
SMS и т.д.) предоставляет доступ к создаваемому пользователями каталогу ссылок на торрент-файлы, которые содержат только списки хеш-сумм.
Убедительная просьба с жалобами обращаться напрямую к пользователю, разместившему торрент файл.

Вверх