Loading...
Error

Грязная кампания за честные выборы / The Campaign [Extended] (Джей Роуч) [2012 г., комедия, HDRip] EXTENDED DVO

Статистика раздачи
Размер:  1,37 GB   |    Зарегистрирован:  4 года 1 месяц   |    Скачан:  102 раза

Полного источника не было: 22 часа

Сидов:  0  |  0 KB/s  ]   Личеров:  0  |  0 KB/s  ]

* - сиды/пиры с внешних источников

   
 
Автор Сообщение

90ytr90 

01-Ноя-2012 16:37

Грязная кампания за честные выборы / The Campaign
[Extended]
«Хуже нас - лучше нет!»

Страна: США
Год выпуска: 2012
Дата мировой премьеры: 4 августа 2012
Дата российской премьеры: 22 ноября 2012, «Каро-Премьер»
Жанр: комедия
Продолжительность: 01:35:39
Перевод: любительский (двухголосый)
Режиссёр: Джей Роуч

В ролях: Уилл Феррелл, Зак Галифианакис, Джейсон Судейкис, Дилан МакДермотт, Кэтрин ЛаНаса, Сара Бэйкер, Джон Литгоу, Дэн Эйкройд, Брайан Кокс, Карен Маруяма


Сюжет: Два конкурирующих политика Кэм Брэди и Марти Хаггинс, пытаются победить на выборах, чтобы представлять свой небольшой штат Северная Каролина в Палате представителей США. Каждый при этом использует свои методы для достижения наилучшего результата.

       

Качество раздачи: HDRip [Рип с BDRip 720]
Контейнер: AVI (XviD)
Видео: 1589 Kb/s, 720x400
Аудио: AC3, 448 kb/s, (6 ch)
picpicpic
Для увеличения картинки щелкните мышкой по превью

Код:

General
Complete name                    : P:\Gryaznaja.kampanija.2012.P.HDRip.1400MB.EXTENDED.avi
Format                           : AVI
Format/Info                      : Audio Video Interleave
File size                        : 1.37 GiB
Duration                         : 1h 35mn
Overall bit rate                 : 2 046 Kbps
Writing application              : VirtualDubMod 1.5.10.2 (build 2540/release)
Writing library                  : VirtualDubMod build 2540/release

Video
ID                               : 0
Format                           : MPEG-4 Visual
Format profile                   : Streaming Video@L1
Format settings, BVOP            : Yes
Format settings, QPel            : No
Format settings, GMC             : No warppoints
Format settings, Matrix          : Default (MPEG)
Codec ID                         : XVID
Codec ID/Hint                    : XviD
Duration                         : 1h 35mn
Bit rate                         : 1 589 Kbps
Width                            : 720 pixels
Height                           : 400 pixels
Display aspect ratio             : 16/9
Frame rate                       : 23.976 fps
Resolution                       : 24 bits
Colorimetry                      : 4:2:0
Scan type                        : Progressive
Bits/(Pixel*Frame)               : 0.230
Stream size                      : 1.06 GiB (78%)
Writing library                  : XviD 1.2.1 (UTC 2008-12-04)

Audio
ID                               : 1
Format                           : AC-3
Format/Info                      : Audio Coding 3
Codec ID                         : 2000
Duration                         : 1h 35mn
Bit rate mode                    : Constant
Bit rate                         : 448 Kbps
Channel(s)                       : 6 channels
Channel positions                : Front: L C R, Surround: L R, LFE
Sampling rate                    : 48.0 KHz
Stream size                      : 307 MiB (22%)
Alignment                        : Split accross interleaves
Interleave, duration             : 42 ms (1.00 video frame)
Interleave, preload duration     : 500 ms

Этот торрент недоступен для скачивания без регистрации, однако доступен по публичной magnet-ссылке (источники с публичных трекеров). Перед использованием ссылки прочтите, пожалуйста Пользовательское соглашение, а также как можно дольше оставайтесь на раздаче! Для того, чтобы скачать сам торрент-файл (который видит больше источников), а также для того, чтобы поблагодарить релизера, вам необходимо зарегистрироваться. Если регистрироваться лень - вы можете также попробовать скачать релиз по нашим партнерским ссылкам ниже.

[underverse.su].t20997.torrent
Трекер: Зарегистрирован   [ 01.11.2012 16:37 ]  

Статус: проверено (by garry at 01.11.2012 18:47)
Поблагодарили: 2 человека
Тип торрента: публичный - доступные источники с открытых трекеров: 
Размер: 1,37 GB (занимает 0,31 DVDR, для записи нужно 1 болванка DVDR/RW)
 
 
Похожие темы
Форум Тема Автор Торрент Отв. Посл. сооб.
Зарубежное кино [DVDRip, Low-Res HDRip, и т.д.] Грязная кампания за честные выборы / The Campaign (Джей Роуч) [2012 г., комедия, HDRip] MVO 90ytr90
14 | 0

0 | 516

32

01.12.2012 20:52

Зарубежное кино [DVDRip, Low-Res HDRip, и т.д.] Грязная кампания за честные выборы / The Campaign [Extended] (Джей Роуч) [2012 г., комедия, HDRip] DVO 90ytr90
4 | 0

0 | 256

0

06.12.2012 20:31

Зарубежное кино [DVDRip, Low-Res HDRip, и т.д.] Грязная кампания за честные выборы / The Campaign (Джей Роуч) [2012 г., комедия, HDRip] MVO 90ytr90
1 | 0

0 | 260

6

06.12.2012 20:33

Зарубежное кино [DVDRip, Low-Res HDRip, и т.д.] Грязная кампания за честные выборы / The Campaign [Theatrical Cut] (Джей Роуч) [2012 г., комедия, BDRip] MVO 90ytr90
1 | 0

0 | 889

31

09.02.2013 11:05



Последний раз редактировалось: 90ytr90 (02.12.2012 10:22), всего редактировалось 5 раз(а)

pinkrabbi 

02-Ноя-2012 20:05

спасибки, заценим)

Яндекс.Метрика powered by Sphinx


В Н И М А Н И Е
Сайт не распространяет и не хранит электронные версии произведений, а лишь бесплатно и без коммерческой выгоды (не требуя взамен платы,
SMS и т.д.) предоставляет доступ к создаваемому пользователями каталогу ссылок на торрент-файлы, которые содержат только списки хеш-сумм.
Убедительная просьба с жалобами обращаться напрямую к пользователю, разместившему торрент файл.

Вверх