Loading...
Error

Братаны-2 /Серии: 1 - 16(16)(Сергей Лялин) [2010г, Боевик криминал, SATRip]

Статистика раздачи
Размер:  8,71 GB   |    Зарегистрирован:  4 года 1 месяц   |    Скачан:  8 раз

Полного источника не было: 2 года

Сидов:  0  |  0 KB/s  ]   Личеров:  0  |  0 KB/s  ]

* - сиды/пиры с внешних источников

   
 
Автор Сообщение

nemos Пол:Муж

01-Ноя-2012 16:03



Год выпуска: 2010
Жанр: Боевик, криминал
Страна: Россия
Режиссер: Сергей Лялин
В ролях: Алексей Кравченко, Равшана Куркова, Сергей Селин, Антон Хабаров, Роман Гредин, Александр Туманов, Виктор Конухин, Эдуард Чемодаков, Александр Пугачев, Александр Лучинин
Сюжет фильма:
Продолжение сериала "Братаны", в котором четверо бывших десантников бросают вызов мафии и коррумпированным сотрудникам милиции.
На этот раз история начинается, когда друзья помогают детям-попрошайкам, которых терроризируют бандиты. В ответ бандиты похищают Леню. Братаны с помощью инспектора по делам несовершеннолетних выходят на «нищенскую» мафию. Старый знакомый братанов, Шмель, решает устранить их, но сделать это не так-то просто.
К друзьям присоединяется Алекс, младший брат погибшего Костяна, вместе они вступают в схватку с мафией, спасают всех заложников, добиваются ареста преступников и находят любовь.


Качество видео: SatRip

Продолжительность: 00:45:43серия
Формат: AVI
Видео: XviD, 704x400, 1 514 kbps
Аудио: русский, MP3 2.0, 128 kbps

Код:

E:\ÑÊÀ×ÊÈ\Ñ underverse\Bratani-2\Bratani_15.avi
   General
      Complete name : E:\ÑÊÀ×ÊÈ\Ñ underverse\Bratani-2\Bratani_15.avi
      Format : AVI
      Format/Info : Audio Video Interleave
      File size : 540 MiB
      Duration : 45mn 43s
      Overall bit rate : 1 651 Kbps
      Writing application : VirtualDubMod 1.5.10.2 (build 2540/release)
      Writing library : VirtualDubMod build 2540/release
   Video #0
      ID : 0
      Format : MPEG-4 Visual
      Format profile : Advanced Simple@L5
      Format settings, BVOP : 2
      Format settings, QPel : No
      Format settings, GMC : No warppoints
      Format settings, Matrix : Default (H.263)
      Muxing mode : Packed bitstream
      Codec ID : XVID
      Codec ID/Hint : XviD
      Duration : 45mn 43s
      Bit rate : 1 514 Kbps
      Width : 704 pixels
      Height : 400 pixels
      Display aspect ratio : 16:9
      Frame rate : 25.000 fps
      Color space : YUV
      Chroma subsampling : 4:2:0
      Bit depth : 8 bits
      Scan type : Progressive
      Compression mode : Lossy
      Bits/(Pixel*Frame) : 0.215
      Stream size : 495 MiB (92%)
      Writing library : XviD 1.2.1 (UTC 2008-12-04)
   Audio #1
      ID : 1
      Format : MPEG Audio
      Format version : Version 1
      Format profile : Layer 3
      Mode : Joint stereo
      Mode extension : MS Stereo
      Codec ID : 55
      Codec ID/Hint : MP3
      Duration : 45mn 43s
      Bit rate mode : Constant
      Bit rate : 128 Kbps
      Channel(s) : 2 channels
      Sampling rate : 48.0 KHz
      Compression mode : Lossy
      Stream size : 41.9 MiB (8%)
      Alignment : Aligned on interleaves
      Interleave, duration : 40 ms (1.00 video frame)
      Interleave, preload duration : 504 ms
Семпл: http://multi-up.com/783739

picpicpicpicpicpicpicpicpicpic
Для увеличения картинки щелкните мышкой по превью

Этот торрент недоступен для скачивания без регистрации, однако доступен по публичной magnet-ссылке (источники с публичных трекеров). Перед использованием ссылки прочтите, пожалуйста Пользовательское соглашение, а также как можно дольше оставайтесь на раздаче! Для того, чтобы скачать сам торрент-файл (который видит больше источников), а также для того, чтобы поблагодарить релизера, вам необходимо зарегистрироваться. Если регистрироваться лень - вы можете также попробовать скачать релиз по нашим партнерским ссылкам ниже.

[underverse.su].t20996.torrent
Трекер: Зарегистрирован   [ 01.11.2012 16:03 ]  

Статус: проверено (by garry at 01.11.2012 17:43)
Поблагодарили: 1 человек
Тип торрента: публичный - доступные источники с открытых трекеров: 
Размер: 8,71 GB (занимает 1,99 DVDR, для записи нужно 2 болванки DVDR/RW)
 
 

Яндекс.Метрика powered by Sphinx


В Н И М А Н И Е
Сайт не распространяет и не хранит электронные версии произведений, а лишь бесплатно и без коммерческой выгоды (не требуя взамен платы,
SMS и т.д.) предоставляет доступ к создаваемому пользователями каталогу ссылок на торрент-файлы, которые содержат только списки хеш-сумм.
Убедительная просьба с жалобами обращаться напрямую к пользователю, разместившему торрент файл.

Вверх