Loading...
Error

Мстители / The Avengers (Джосс Уидон) [2012 г., боевик, BDRip-AVC] Dub

Статистика раздачи
Размер:  1,45 GB   |    Зарегистрирован:  4 года 1 месяц   |    Скачан:  49 раз

Полного источника не было: 5 месяцев

Сидов:  0  |  0 KB/s  ]   Личеров:  0  |  0 KB/s  ]

* - сиды/пиры с внешних источников

   
 
Автор Сообщение

Garnett Пол:Муж

01-Ноя-2012 11:58

Мстители / The Avengers


Год выпуска: 2012
Жанр: боевик
Страна: США
Режиссер: Джосс Уидон
В ролях: Роберт Дауни мл., Крис Эванс, Марк Руффало, Крис Хемсворт, Скарлетт Йоханссон, Джереми Реннер, Том Хиддлстон, Сэмюэл Л. Джексон, Кларк Грегг, Коби Смолдерс
Сюжет фильма:
Локи, сводный брат Тора, возвращается, и в этот раз он не один. Земля на грани порабощения, и только лучшие из лучших могут спасти человечество.

Ник Фьюри, глава международной организации Щ. И. Т., собирает выдающихся поборников справедливости и добра, чтобы отразить атаку. Под предводительством Капитана Америки Железный Человек, Тор, Невероятный Халк, Соколиный глаз и Чёрная Вдова вступают в войну с захватчиком.

  • Мировая премьера: 11 апреля 2012
  • Российская премьера: 3 мая 2012, «WDSSPR» 3D

Качество видео: BDRip-AVC

Продолжительность: 02:22:54
Формат: MKV
Видео: x264, 960 x 540, 1256 Kbps
Аудио: русский, дублированный [лицензия], AC3 2.0, 192.00 kbps

Код:

Общее
Уникальный идентификатор : 210543120230756432565186376045539143225 (0x9E6521469CD6DBFE98DF1C0AA6B4AE39)
Полное имя : C:\Documents and Settings\1\Мои документы\Мои видеозаписи\Download\Раздачи\The_Avengers_by_ghostrider_15.mkv
Формат : Matroska
Версия формата : Version 2
Размер файла : 1,45 Гбайт
Продолжительность : 2 ч. 22 м.
Общий поток : 1450 Кбит/сек
Название фильма : Мстители / The Avengers (2012) BDRip-AVC
Дата кодирования : UTC 2012-08-22 05:26:51
Программа кодирования : mkvmerge v5.7.0 ('The Whirlwind') built on Jul 8 2012 20:08:51
Библиотека кодирования : libebml v1.2.3 + libmatroska v1.3.0
Видео
Идентификатор : 1
Формат : AVC
Формат/Информация : Advanced Video Codec
Профиль формата : High@L4.1
Параметр CABAC формата : Да
Параметр ReFrames формата : 6 кадров
Параметр GOP формата : M=1, N=3
Идентификатор кодека : V_MPEG4/ISO/AVC
Продолжительность : 2 ч. 22 м.
Битрейт : 1256 Кбит/сек
Ширина : 960 пикселей
Высота : 540 пикселей
Соотношение сторон : 16:9
Режим частоты кадров : Постоянный
Частота кадров : 23,976 кадра/сек
Цветовое пространство : YUV
Субдискретизация насыщенности : 4:2:0
Битовая глубина : 8 бит
Тип развёртки : Прогрессивная
Бит/(Пиксели*Кадры) : 0.101
Размер потока : 1,23 Гбайт (85%)
Библиотека кодирования : x264 core 125 r2200 999b753
Настройки программы : cabac=1 / ref=6 / deblock=1:-2:-1 / analyse=0x3:0x113 / me=umh / subme=9 / psy=1 / psy_rd=1.00:0.00 / mixed_ref=1 / me_range=32 / chroma_me=1 / trellis=2 / 8x8dct=1 / cqm=0 / deadzone=21,11 / fast_pskip=1 / chroma_qp_offset=-2 / threads=16 / lookahead_threads=2 / sliced_threads=0 / nr=0 / decimate=1 / interlaced=0 / bluray_compat=0 / constrained_intra=0 / bframes=6 / b_pyramid=2 / b_adapt=1 / b_bias=0 / direct=3 / weightb=1 / open_gop=0 / weightp=2 / keyint=240 / keyint_min=23 / scenecut=40 / intra_refresh=0 / rc=2pass / mbtree=0 / bitrate=1256 / ratetol=1.0 / qcomp=0.60 / qpmin=10 / qpmax=51 / qpstep=4 / cplxblur=20.0 / qblur=0.5 / ip_ratio=1.40 / pb_ratio=1.30 / aq=1:1.00
Default : Да
Forced : Нет
Аудио
Идентификатор : 2
Формат : AC-3
Формат/Информация : Audio Coding 3
Расширение режима : CM (complete main)
Параметр Endianness формата : Big
Идентификатор кодека : A_AC3
Продолжительность : 2 ч. 22 м.
Вид битрейта : Постоянный
Битрейт : 192 Кбит/сек
Каналы : 2 канала
Расположение каналов : Front: L R
Частота : 48,0 КГц
Битовая глубина : 16 бит
Метод сжатия : С потерями
Размер потока : 196 Мбайт (13%)
Заголовок : Дубляж
Язык : Russian
Default : Да
Forced : Нет
picpicpic
Для увеличения картинки щелкните мышкой по превью

Этот торрент недоступен для скачивания без регистрации, однако доступен по публичной magnet-ссылке (источники с публичных трекеров). Перед использованием ссылки прочтите, пожалуйста Пользовательское соглашение, а также как можно дольше оставайтесь на раздаче! Для того, чтобы скачать сам торрент-файл (который видит больше источников), а также для того, чтобы поблагодарить релизера, вам необходимо зарегистрироваться. Если регистрироваться лень - вы можете также попробовать скачать релиз по нашим партнерским ссылкам ниже.

[underverse.su].t20995.torrent
Трекер: Зарегистрирован   [ 01.11.2012 11:58 ]  

Статус: проверено (by garry at 01.11.2012 17:41)
Поблагодарили: 3 человека
Тип торрента: публичный - доступные источники с открытых трекеров: 
Размер: 1,45 GB (занимает 1/3 DVDR, для записи нужно 1 болванка DVDR/RW)
 
 
Похожие темы
Форум Тема Автор Торрент Отв. Посл. сооб.
Зарубежное кино [DVDRip, Low-Res HDRip, и т.д.] Мстители / The Avengers (Джосс Уидон) [2012 г., фантастика, боевик, триллер, DVDRip] [лицензия] RG NewCinema
0 | 0

3 | 14275

317

30.09.2012 09:29

Зарубежное кино [DVDRip, Low-Res HDRip, и т.д.] Мстители / The Avengers (Джосс Уидон) [2012 г., Фантастика, боевик, приключения, HDRip] AVO (Ю.Сербин) 90ytr90
1 | 0

0 | 1127

55

09.12.2012 14:26

Зарубежное кино HQ Мстители / The Avengers (Джосс Уидон) [2012 г., фантастика, боевик, триллер, HDRip] (Rus, Eng, Ukr) HQ Underverse HQ Underverse
1 | 0

6 | 10709

240

01.12.2013 06:37

Зарубежное кино [DVD / HDDVD / BD / Remux] Мстители / The Avengers (Джосс Уидон / Joss Whedon) [2012, фантастика, боевик, триллер, BDRemux 1080p] Dub + AVO (Юрий Сербин) + Sub (Rus, Eng) + Original Eng uzi2009
30 | 3

0 | 1013

12

22.01.2014 21:52

Зарубежное кино [DVD / HDDVD / BD / Remux] Мстители / The Avengers (Джосс Уидон / Joss Whedon) [2012 г., фантастика, боевик, приключения, Blu-ray Disc 1080p] uzi2009
6 | 0

1 | 1436

9

15.02.2014 14:55


Яндекс.Метрика powered by Sphinx


В Н И М А Н И Е
Сайт не распространяет и не хранит электронные версии произведений, а лишь бесплатно и без коммерческой выгоды (не требуя взамен платы,
SMS и т.д.) предоставляет доступ к создаваемому пользователями каталогу ссылок на торрент-файлы, которые содержат только списки хеш-сумм.
Убедительная просьба с жалобами обращаться напрямую к пользователю, разместившему торрент файл.

Вверх