Loading...
Error

Вампирши / Vamps (Эми Хекерлинг) [2012 г., ужасы, мелодрама, комедия, HDRip-AVC] VO + Original

Статистика раздачи
Размер:  2,17 GB   |    Зарегистрирован:  4 года 1 месяц   |    Скачан:  22 раза

Полного источника не было: 4 месяца 17 дней

Сидов:  0  |  0 KB/s  ]   Личеров:  0  |  0 KB/s  ]

* - сиды/пиры с внешних источников

   
 
Автор Сообщение

Garnett Пол:Муж

01-Ноя-2012 11:54

Вампирши / Vamps


Год выпуска: 2012
Жанр: ужасы, мелодрама, комедия
Страна: США
Режиссер: Эми Хекерлинг
В ролях: Алисия Сильверстоун, Кристен Риттер, Дэн Стивенс, Ричард Льюис, Сигурни Уивер, Уоллес Шоун, Джастин Кирк, Малкольм МакДауэлл, Зак Орт, Мэрилу Хеннер
Сюжет фильма:
Две сексуальные современные вампирши живут в свое удовольствие среди нью-йоркской ночной тусовки до тех пор, пока любовь не встречается на их пути и не ставит под угрозу их бессмертие.

  • Мировая премьера: 25 августа 2012

Качество видео: HDRip-AVC

Продолжительность: 01:32:38
Формат: MKV
Видео: x264, 1120x604, 2465 Кбит/сек
Аудио #1: русский, одноголосый закадровый [любительский], AC3 5.1, 448 kbps
Аудио #2: английский, оригинал, AC3 5.1, 448 kbps

Код:

Общее
Уникальный идентификатор         : 245947325775690389833242598457532633202 (0xB907BB60C502A10CA7B309D183CE5072)
Полное имя                       : Y:\Vamps.2012.HDRip-AVC_[*другой трекер*]_by_Deerhoof.mkv
Формат                           : Matroska
Версия формата                   : Version 2
Размер файла                     : 2,17 Гбайт
Продолжительность                : 1 ч. 32 м.
Общий поток                      : 3353 Кбит/сек
Дата кодирования                 : UTC 2012-10-30 14:22:37
Программа кодирования            : mkvmerge v5.6.0 ('Kenya Kane') built on May 27 2012 16:44:04
Библиотека кодирования           : libebml v1.2.3 + libmatroska v1.3.0
Видео
Идентификатор                    : 1
Формат                           : AVC
Формат/Информация                : Advanced Video Codec
Профиль формата                  : High@L4.1
Параметр CABAC формата           : Да
Параметр ReFrames формата        : 12 кадров
Идентификатор кодека             : V_MPEG4/ISO/AVC
Продолжительность                : 1 ч. 32 м.
Битрейт                          : 2465 Кбит/сек
Ширина                           : 1120 пикселей
Высота                           : 604 пикселя
Соотношение сторон               : 1,854
Частота кадров                   : 23,976 кадра/сек
Цветовое пространство            : YUV
Субдискретизация насыщенности    : 4:2:0
Битовая глубина                  : 8 бит
Тип развёртки                    : Прогрессивная
Бит/(Пиксели*Кадры)              : 0.152
Размер потока                    : 1,55 Гбайт (71%)
Заголовок                        : Vamps.2012.HDRip-AVC_[*другой трекер*]_by_Deerhoof
Библиотека кодирования           : x264 core 125 r2200 999b753
Настройки программы              : cabac=1 / ref=12 / deblock=1:-2:-1 / analyse=0x3:0x133 / me=umh / subme=11 / psy=1 / psy_rd=1.00:0.05 / mixed_ref=1 / me_range=48 / chroma_me=1 / trellis=2 / 8x8dct=1 / cqm=0 / deadzone=21,11 / fast_pskip=0 / chroma_qp_offset=-3 / threads=6 / lookahead_threads=1 / sliced_threads=0 / nr=0 / decimate=1 / interlaced=0 / bluray_compat=0 / constrained_intra=0 / bframes=12 / b_pyramid=2 / b_adapt=2 / b_bias=0 / direct=3 / weightb=0 / open_gop=0 / weightp=2 / keyint=240 / keyint_min=23 / scenecut=40 / intra_refresh=0 / rc_lookahead=80 / rc=2pass / mbtree=1 / bitrate=2465 / ratetol=1.0 / qcomp=0.60 / qpmin=0 / qpmax=69 / qpstep=4 / cplxblur=20.0 / qblur=0.5 / ip_ratio=1.40 / aq=2:0.90
Язык                             : English
Основные цвета                   : BT.709-5, BT.1361, IEC 61966-2-4, SMPTE RP177
Характеристики трансфера         : BT.709-5, BT.1361
Коэффициенты матрицы             : BT.709-5, BT.1361, IEC 61966-2-4 709, SMPTE RP177
Аудио #1
Идентификатор                    : 2
Формат                           : AC-3
Формат/Информация                : Audio Coding 3
Расширение режима                : CM (complete main)
Идентификатор кодека             : A_AC3
Продолжительность                : 1 ч. 32 м.
Вид битрейта                     : Постоянный
Битрейт                          : 448 Кбит/сек
Каналы                           : 6 каналов
Расположение каналов             : Front: L C R, Side: L R, LFE
Частота                          : 48,0 КГц
Битовая глубина                  : 16 бит
Метод сжатия                     : С потерями
Размер потока                    : 297 Мбайт (13%)
Заголовок                        : Одноголосый (закадровый)
Язык                             : Russian
Аудио #2
Идентификатор                    : 3
Формат                           : AC-3
Формат/Информация                : Audio Coding 3
Расширение режима                : CM (complete main)
Идентификатор кодека             : A_AC3
Продолжительность                : 1 ч. 32 м.
Вид битрейта                     : Постоянный
Битрейт                          : 448 Кбит/сек
Каналы                           : 6 каналов
Расположение каналов             : Front: L C R, Side: L R, LFE
Частота                          : 48,0 КГц
Битовая глубина                  : 16 бит
Метод сжатия                     : С потерями
Размер потока                    : 297 Мбайт (13%)
Язык                             : English
picpicpic
Для увеличения картинки щелкните мышкой по превью

Этот торрент недоступен для скачивания без регистрации, однако доступен по публичной magnet-ссылке (источники с публичных трекеров). Перед использованием ссылки прочтите, пожалуйста Пользовательское соглашение, а также как можно дольше оставайтесь на раздаче! Для того, чтобы скачать сам торрент-файл (который видит больше источников), а также для того, чтобы поблагодарить релизера, вам необходимо зарегистрироваться. Если регистрироваться лень - вы можете также попробовать скачать релиз по нашим партнерским ссылкам ниже.

[underverse.su].t20994.torrent
Трекер: Зарегистрирован   [ 01.11.2012 11:54 ]  

Статус: проверено (by garry at 01.11.2012 17:40)
Поблагодарили: 1 человек
Тип торрента: публичный - доступные источники с открытых трекеров: 
Размер: 2,17 GB (занимает 1/2 DVDR, для записи нужно 1 болванка DVDR/RW)
 
 
Похожие темы
Форум Тема Автор Торрент Отв. Посл. сооб.
Зарубежное кино [DVDRip, Low-Res HDRip, и т.д.] Вампирши / Vamps (Эми Хекерлинг) [2012 г., Мелодрама, комедия, HDRip] VO 90ytr90
79 | 4

0 | 734

14

26.10.2012 19:21

Зарубежное кино [DVDRip, Low-Res HDRip, и т.д.] Вампирши / Vamps (Эми Хекерлинг) [2012 г., мелодрама, комедия, HDRip] MVO + Eng 90ytr90
15 | 1

0 | 768

21

02.04.2013 14:13


Яндекс.Метрика powered by Sphinx


В Н И М А Н И Е
Сайт не распространяет и не хранит электронные версии произведений, а лишь бесплатно и без коммерческой выгоды (не требуя взамен платы,
SMS и т.д.) предоставляет доступ к создаваемому пользователями каталогу ссылок на торрент-файлы, которые содержат только списки хеш-сумм.
Убедительная просьба с жалобами обращаться напрямую к пользователю, разместившему торрент файл.

Вверх