Loading...
Error

Медальон / Stolen (Саймон Уэст) [2012 г., боевик, триллер, драма, BDRip-AVC] Dub + Original

Статистика раздачи
Размер:  2,18 GB   |    Зарегистрирован:  4 года 1 месяц   |    Скачан:  27 раз

Полного источника не было: 5 месяцев 7 дней

Сидов:  0  |  0 KB/s  ]   Личеров:  0  |  0 KB/s  ]

* - сиды/пиры с внешних источников

   
 
Автор Сообщение

Garnett Пол:Муж

01-Ноя-2012 11:42

Медальон / Stolen


Год выпуска: 2012
Жанр: боевик, триллер, драма
Страна: США
Режиссер: Саймон Уэст
В ролях: Николас Кейдж, Джош Лукас, Дэнни Хьюстон, Малин Акерман, Сами Гэйл, М. К. Гейни, Марк Вэлли, Эдрик Браун, Бэрри Шебака Хенли, Дж.Д. Эвермор
Сюжет фильма:
Неизвестные похищают дочь бывшего вора в законе, решившего завязать с темным прошлым. Похитители сообщают, что держат девочку-подростка в багажнике такси. У отца есть всего несколько часов, чтобы отыскать киднепперов и спасти ребенка.

  • Мировая премьера: 6 сентября 2012
  • Российская премьера: 6 сентября 2012, «Парадиз»

Качество видео: BDRip-AVC

Продолжительность: 01:35:34
Формат: MKV
Видео: x264, 1036x440, 2365 kbps
Аудио #1: русский, дублированный [лицензия], AC3 5.1, 448.00 kbps
Аудио #2: английский, оригинал, AC3 5.1, 448.00 kbps
Субтитры: Русские, английские (*.srt, отключаемые)

Код:

Полное имя : Medalon.GER.2012.BDRip-AVC.H264.AC3.-HQCLUB.mkv
Формат : Matroska
Версия формата : Version 2
Размер файла : 2,18 Гбайт
Продолжительность : 1 ч. 35 м.
Общий поток : 3260 Кбит/сек
Дата кодирования : UTC 2012-10-31 15:45:45
Программа кодирования : mkvmerge v5.7.0 ('The Whirlwind') built on Jul 8 2012 20:08:51
Библиотека кодирования : libebml v1.2.3 + libmatroska v1.3.0
Видео
Идентификатор : 1
Формат : AVC
Формат/Информация : Advanced Video Codec
Профиль формата : High@L4.1
Параметр CABAC формата : Да
Параметр ReFrames формата : 9 кадров
Идентификатор кодека : V_MPEG4/ISO/AVC
Продолжительность : 1 ч. 35 м.
Битрейт : 2365 Кбит/сек
Ширина : 1036 пикселей
Высота : 440 пикселей
Соотношение сторон : 2,35:1
Режим частоты кадров : Постоянный
Частота кадров : 23,976 кадра/сек
Цветовое пространство : YUV
Субдискретизация насыщенности : 4:2:0
Битовая глубина : 8 бит
Тип развёртки : Прогрессивная
Бит/(Пиксели*Кадры) : 0.216
Размер потока : 1,54 Гбайт (71%)
Заголовок : Медальон / Stolen [GER Transfer] (2012) BDRip-AVC | HQCLUB
Библиотека кодирования : x264 core 120 r2146 bcd41db
Настройки программы : cabac=1 / ref=9 / deblock=1:-3:-2 / analyse=0x3:0x133 / me=umh / subme=11 / psy=1 / psy_rd=1.00:0.00 / mixed_ref=1 / me_range=64 / chroma_me=1 / trellis=2 / 8x8dct=1 / cqm=0 / deadzone=21,11 / fast_pskip=0 / chroma_qp_offset=-4 / threads=12 / sliced_threads=0 / nr=0 / decimate=1 / interlaced=0 / bluray_compat=0 / constrained_intra=0 / bframes=14 / b_pyramid=2 / b_adapt=2 / b_bias=0 / direct=3 / weightb=1 / open_gop=0 / weightp=2 / keyint=240 / keyint_min=24 / scenecut=40 / intra_refresh=0 / rc_lookahead=40 / rc=2pass / mbtree=0 / bitrate=2365 / ratetol=1.0 / qcomp=0.60 / qpmin=0 / qpmax=69 / qpstep=4 / cplxblur=20.0 / qblur=0.5 / vbv_maxrate=62500 / vbv_bufsize=50000 / nal_hrd=none / ip_ratio=1.40 / pb_ratio=1.30 / aq=1:0.70
Язык : English
Default : Да
Forced : Да
Аудио #1
Идентификатор : 2
Формат : AC-3
Формат/Информация : Audio Coding 3
Расширение режима : CM (complete main)
Параметр Endianness формата : Big
Идентификатор кодека : A_AC3
Продолжительность : 1 ч. 35 м.
Вид битрейта : Постоянный
Битрейт : 448 Кбит/сек
Каналы : 6 каналов
Расположение каналов : Front: L C R, Side: L R, LFE
Частота : 48,0 КГц
Битовая глубина : 16 бит
Метод сжатия : С потерями
Размер потока : 306 Мбайт (14%)
Заголовок : Дубляж (BD RUS) AC3 5.1 @ 448 kbps
Язык : Russian
Default : Да
Forced : Да
Аудио #2
Идентификатор : 3
Формат : AC-3
Формат/Информация : Audio Coding 3
Расширение режима : CM (complete main)
Параметр Endianness формата : Big
Идентификатор кодека : A_AC3
Продолжительность : 1 ч. 35 м.
Вид битрейта : Постоянный
Битрейт : 448 Кбит/сек
Каналы : 6 каналов
Расположение каналов : Front: L C R, Side: L R, LFE
Частота : 48,0 КГц
Битовая глубина : 16 бит
Метод сжатия : С потерями
Размер потока : 306 Мбайт (14%)
Заголовок : Оригинал AC3 5.1 @ 448 kbps
Язык : English
Default : Нет
Forced : Да
Текст #1
Идентификатор : 4
Формат : UTF-8
Идентификатор кодека : S_TEXT/UTF8
Идентификатор кодека/Информация : UTF-8 Plain Text
Заголовок : Full
Язык : Russian
Default : Да
Forced : Да
Текст #2
Идентификатор : 5
Формат : UTF-8
Идентификатор кодека : S_TEXT/UTF8
Идентификатор кодека/Информация : UTF-8 Plain Text
Заголовок : Full
Язык : English
Default : Нет
Forced : Да
Меню
00:00:00.000 : en:00:00:00.000
00:08:31.636 : en:00:08:31.636
00:14:20.610 : en:00:14:20.610
00:20:30.146 : en:00:20:30.146
00:30:58.648 : en:00:30:58.648
00:41:15.223 : en:00:41:15.223
00:51:11.819 : en:00:51:11.819
00:59:54.800 : en:00:59:54.800
01:08:47.415 : en:01:08:47.415
01:15:53.841 : en:01:15:53.841
01:24:26.812 : en:01:24:26.812
01:30:16.828 : en:01:30:16.828
picpicpic
Для увеличения картинки щелкните мышкой по превью

Этот торрент недоступен для скачивания без регистрации, однако доступен по публичной magnet-ссылке (источники с публичных трекеров). Перед использованием ссылки прочтите, пожалуйста Пользовательское соглашение, а также как можно дольше оставайтесь на раздаче! Для того, чтобы скачать сам торрент-файл (который видит больше источников), а также для того, чтобы поблагодарить релизера, вам необходимо зарегистрироваться. Если регистрироваться лень - вы можете также попробовать скачать релиз по нашим партнерским ссылкам ниже.

[underverse.su].t20992.torrent
Трекер: Зарегистрирован   [ 01.11.2012 11:42 ]  

Статус: проверено (by garry at 01.11.2012 17:36)
Поблагодарили: 1 человек
Тип торрента: публичный - доступные источники с открытых трекеров: 
Размер: 2,18 GB (занимает 1/2 DVDR, для записи нужно 1 болванка DVDR/RW)
 
 
Похожие темы
Форум Тема Автор Торрент Отв. Посл. сооб.
Зарубежное кино [DVDRip, Low-Res HDRip, и т.д.] Медальон / Stolen (Саймон Уэст) [2012 г., боевик, триллер, DVDRip] Dub ZondeR
0 | 0

3 | 751

42

08.10.2012 04:49

Зарубежное кино [DVDRip, Low-Res HDRip, и т.д.] Медальон / Stolen (Саймон Уэст) [2012 г., боевик, триллер, BDRip-AVC] Dub Garnett
4 | 0

0 | 395

5

05.10.2012 15:05

Зарубежное кино [DVDRip, Low-Res HDRip, и т.д.] Медальон / Stolen (Саймон Уэст) [2012 г., боевик, триллер, BDRip] Dub Garnett
11 | 0

2 | 1173

109

08.10.2012 04:44

Зарубежное кино HQ Медальон / Stolen (Саймон Уэст) [2012 г., боевик, триллер, HDRip] Dub + Original + Sub (Rus) HQ Underverse HQ Underverse
0 | 0

0 | 846

49

10.10.2012 21:32


Яндекс.Метрика powered by Sphinx


В Н И М А Н И Е
Сайт не распространяет и не хранит электронные версии произведений, а лишь бесплатно и без коммерческой выгоды (не требуя взамен платы,
SMS и т.д.) предоставляет доступ к создаваемому пользователями каталогу ссылок на торрент-файлы, которые содержат только списки хеш-сумм.
Убедительная просьба с жалобами обращаться напрямую к пользователю, разместившему торрент файл.

Вверх