Loading...
Error

Братаны 3 / Серии: 1-32 (32) (Виктор Конисевич, Александр Калугин) [2012г, боевик, криминал, детектив, SATRip]

Статистика раздачи
Размер:  17,24 GB   |    Зарегистрирован:  4 года 1 месяц   |    Скачан:  5 раз

Полного источника не было: 2 года

Сидов:  0  |  0 KB/s  ]   Личеров:  0  |  0 KB/s  ]

* - сиды/пиры с внешних источников

   
 
Автор Сообщение

nemos Пол:Муж

01-Ноя-2012 07:58



Год выпуска: 2012
Жанр: Боевик, криминал, детектив
Страна: Россия
Режиссер: Виктор Конисевич, Александр Калугин
В ролях: Алексей Кравченко, Сергей Селин, Антон Хабаров, Даниил Воробьёв, Дмитрий Назаров, Дарья Калмыкова, Наталья Коренная, Надежда Борисова, Александра Флоринская, Сергей Жарков, Александр Сирин, Александр Терешко, Игорь Филиппов, Евгений Ермаков, Андрей Москвичев, Алина Кизиярова, Борис Каморзин, Сергей Калашников, Валерий Баринов, Владимир Епифанцев, Алексей Колган, Фархад Махмудов, Анастасия Веденская, Венчислав Хотяновский, Александр Арефьев, Олег Соколов (III), Константин Адаев, Сергей Чудаков, Александр Никольский (II), Константин Столяров, Максим Амельченко, Павел Новиков, Константин Желдин, Виталий Кудрявцев, Тимофей Каратаев, Виктор Потапешкин, Юлия
Сюжет фильма:
Плечом к плечу Макар, Серёга, Лёнчик и Алекс будут сражаться с несправедливостью и злом. Героев ждет новая встреча с воротилами и пешками криминального мира. Мирная жизнь для десантников вновь заканчивается: из колонии недавно освободился хитроумный Барон. Но выстоять и победить братанам под силу, ведь вместе они стоят целой армии!


Качество видео: SatRip

Продолжительность: 2х~01:29:00серии
Формат: AVI
Видео: XviD, 704x384, 1 620 kbps
Аудио: русский, оригинал, MP3 2.0, 128 kbps

Код:

E:\ÑÊÀ×ÊÈ\100\Bratani-3\Bratani-3-31-32.avi
   General
      Complete name : E:\ÑÊÀ×ÊÈ\100\Bratani-3\Bratani-3-31-32.avi
      Format : AVI
      Format/Info : Audio Video Interleave
      File size : 1.09 GiB
      Duration : 1h 29mn
      Overall bit rate : 1 758 Kbps
      Writing application : VirtualDubMod 1.5.10.2 (build 2540/release)
      Writing library : VirtualDubMod build 2540/release
   Video #0
      ID : 0
      Format : MPEG-4 Visual
      Format profile : Advanced Simple@L5
      Format settings, BVOP : 2
      Format settings, QPel : No
      Format settings, GMC : No warppoints
      Format settings, Matrix : Default (H.263)
      Muxing mode : Packed bitstream
      Codec ID : XVID
      Codec ID/Hint : XviD
      Duration : 1h 29mn
      Bit rate : 1 620 Kbps
      Width : 704 pixels
      Height : 384 pixels
      Display aspect ratio : 1.85:1
      Frame rate : 25.000 fps
      Color space : YUV
      Chroma subsampling : 4:2:0
      Bit depth : 8 bits
      Scan type : Progressive
      Compression mode : Lossy
      Bits/(Pixel*Frame) : 0.240
      Stream size : 1.01 GiB (92%)
      Writing library : XviD 58
   Audio #1
      ID : 1
      Format : MPEG Audio
      Format version : Version 1
      Format profile : Layer 3
      Mode : Joint stereo
      Mode extension : MS Stereo
      Codec ID : 55
      Codec ID/Hint : MP3
      Duration : 1h 29mn
      Bit rate mode : Constant
      Bit rate : 128 Kbps
      Channel(s) : 2 channels
      Sampling rate : 48.0 KHz
      Compression mode : Lossy
      Stream size : 81.5 MiB (7%)
      Alignment : Aligned on interleaves
      Interleave, duration : 40 ms (1.00 video frame)
      Interleave, preload duration : 504 ms
      Writing library : LAME3.98r
      Encoding settings : -m j -V 4 -q 2 -lowpass 18.6 -b 192
Семпл: http://multi-up.com/783968

picpicpicpicpicpicpicpicpicpicpicpic
Для увеличения картинки щелкните мышкой по превью

Этот торрент недоступен для скачивания без регистрации, однако доступен по публичной magnet-ссылке (источники с публичных трекеров). Перед использованием ссылки прочтите, пожалуйста Пользовательское соглашение, а также как можно дольше оставайтесь на раздаче! Для того, чтобы скачать сам торрент-файл (который видит больше источников), а также для того, чтобы поблагодарить релизера, вам необходимо зарегистрироваться. Если регистрироваться лень - вы можете также попробовать скачать релиз по нашим партнерским ссылкам ниже.

[underverse.su].t21090.torrent
Трекер: Зарегистрирован   [ 04.11.2012 15:50 ]  

Статус: проверено (by garry at 04.11.2012 21:14)
Поблагодарили: 1 человек
Тип торрента: публичный - доступные источники с открытых трекеров: 
Размер: 17,24 GB (занимает 3,94 DVDR, для записи нужно 4 болванки DVDR/RW)
 
 


Последний раз редактировалось: nemos (06.11.2014 12:42), всего редактировалось 5 раз(а)

nemos Пол:Муж

01-Ноя-2012 20:44

Обновлена

nemos Пол:Муж

04-Ноя-2012 15:52

Обновлена.Добавлены все серии сериала,

Яндекс.Метрика powered by Sphinx


В Н И М А Н И Е
Сайт не распространяет и не хранит электронные версии произведений, а лишь бесплатно и без коммерческой выгоды (не требуя взамен платы,
SMS и т.д.) предоставляет доступ к создаваемому пользователями каталогу ссылок на торрент-файлы, которые содержат только списки хеш-сумм.
Убедительная просьба с жалобами обращаться напрямую к пользователю, разместившему торрент файл.

Вверх