Loading...
Error

Мужики за работой / Мужчины за работой / Men at Work / Сезон: 1 / Серии: 1-10 из 10 (Марк Сендроуски, Джеймс Уиддоуз) [2012 г., драма, комедия, WEBDLRip] MVO [Несмертельное оружие]

Статистика раздачи
Размер:  1,96 GB   |    Зарегистрирован:  4 года 10 месяцев   |    Скачан:  9 раз

Полного источника не было: 2 года 6 месяцев

Сидов:  0  |  0 KB/s  ]   Личеров:  0  |  0 KB/s  ]

* - сиды/пиры с внешних источников

   
 
Автор Сообщение

Jimmy Пол:Муж

31-Окт-2012 04:41

Мужики за работой / Мужчины за работой / Men at Work

Год выпуска: 2012
Жанр: драма, комедия
Страна: США
Режиссер: Марк Сендроуски, Джеймс Уиддоуз
В ролях: Дэнни Мастерсон, Майкл Кэссиди, Адам Буш, Джеймс Лежер, Мередит Хагнер, Сара Райт, Эми Смарт, Дж.К. Симмонс, Джулиан Моррис, Стефани Николь Лемелин
Сюжет фильма:
Главные персонажи сериала — работающий в престижном журнале парень по имени Майло и трое его друзей — Нил, Гиббс и Тайлер. После того, как Майло бросила девушка, они помогают ему справиться с депрессией и обрести уверенность в себе; правда, у самих друзей в личной жизни при этом тоже не все гладко.

Качество видео: WEBDLRip

Продолжительность: 00:21:24 x 10
Формат: avi
Видео: XviD, 656x368, 1042 kbps
Аудио #1: русский, многоголосый закадровый [Несмертельное оружие], MP3 2.0, 128 kbps
Аудио #2: английский, оригинал, MP3 2.0, 128 kbps

Код:

General
Complete name                    : F:\Under\Men.At.Work.S01\Men.At.Work.S01E01..avi
Format                           : AVI
Format/Info                      : Audio Video Interleave
File size                        : 201 MiB
Duration                         : 21mn 24s
Overall bit rate                 : 1 313 Kbps
Writing application              : VirtualDubMod 1.5.10.3 | www.virtualdub-fr.org || (build 2550/release)
Writing library                  : VirtualDubMod build 2550/release

Video
ID                               : 0
Format                           : MPEG-4 Visual
Format profile                   : Streaming Video@L1
Format settings, BVOP            : Yes
Format settings, QPel            : No
Format settings, GMC             : No warppoints
Format settings, Matrix          : Default (H.263)
Codec ID                         : XVID
Codec ID/Hint                    : XviD
Duration                         : 21mn 24s
Bit rate                         : 1 043 Kbps
Width                            : 656 pixels
Height                           : 368 pixels
Display aspect ratio             : 16/9
Frame rate                       : 23.976 fps
Resolution                       : 24 bits
Colorimetry                      : 4:2:0
Scan type                        : Progressive
Bits/(Pixel*Frame)               : 0.180
Stream size                      : 160 MiB (79%)
Writing library                  : XviD 1.2.1 (UTC 2008-12-04)

Audio #1
ID                               : 1
Format                           : MPEG Audio
Format version                   : Version 1
Format profile                   : Layer 3
Codec ID                         : 55
Codec ID/Hint                    : MP3
Duration                         : 21mn 24s
Bit rate mode                    : Constant
Bit rate                         : 128 Kbps
Channel(s)                       : 2 channels
Sampling rate                    : 48.0 KHz
Resolution                       : 16 bits
Stream size                      : 19.6 MiB (10%)
Alignment                        : Aligned on interleaves
Interleave, duration             : 42 ms (1.00 video frame)
Interleave, preload duration     : 504 ms
Writing library                  : LAME3.98r
Encoding settings                : -m j -V 4 -q 0 -lowpass 17 -b 128

Audio #2
ID                               : 2
Format                           : MPEG Audio
Format version                   : Version 1
Format profile                   : Layer 3
Codec ID                         : 55
Codec ID/Hint                    : MP3
Duration                         : 21mn 24s
Bit rate mode                    : Constant
Bit rate                         : 128 Kbps
Channel(s)                       : 2 channels
Sampling rate                    : 48.0 KHz
Resolution                       : 16 bits
Stream size                      : 19.6 MiB (10%)
Alignment                        : Aligned on interleaves
Interleave, duration             : 42 ms (1.00 video frame)
Interleave, preload duration     : 504 ms
Writing library                  : LAME3.98r
Encoding settings                : -m j -V 4 -q 0 -lowpass 17 -b 128

Семпл: http://multi-up.com/713131

picpicpicpicpic
Для увеличения картинки щелкните мышкой по превью

Этот торрент недоступен для скачивания без регистрации, однако доступен по публичной magnet-ссылке (источники с публичных трекеров). Перед использованием ссылки прочтите, пожалуйста Пользовательское соглашение, а также как можно дольше оставайтесь на раздаче! Для того, чтобы скачать сам торрент-файл (который видит больше источников), а также для того, чтобы поблагодарить релизера, вам необходимо зарегистрироваться. Если регистрироваться лень - вы можете также попробовать скачать релиз по нашим партнерским ссылкам ниже.

[underverse.su].t20961.torrent
Трекер: Зарегистрирован   [ 31.10.2012 04:41 ]  

Статус: проверено (by garry at 31.10.2012 10:18)
Поблагодарили: пока никто не поблагодарил...
Тип торрента: публичный - доступные источники с открытых трекеров: 
Размер: 1,96 GB (занимает 0,45 DVDR, для записи нужно 1 болванка DVDR/RW)
 
 

Яндекс.Метрика powered by Sphinx


В Н И М А Н И Е
Сайт не распространяет и не хранит электронные версии произведений, а лишь бесплатно и без коммерческой выгоды (не требуя взамен платы,
SMS и т.д.) предоставляет доступ к создаваемому пользователями каталогу ссылок на торрент-файлы, которые содержат только списки хеш-сумм.
Убедительная просьба с жалобами обращаться напрямую к пользователю, разместившему торрент файл.

Вверх