Loading...
Error

Козёл отпущения / The Scapegoat (Чарльз Старридж) [2012 г., драма, HDTVRip] DVO [студия "Райдо"] + Original

Статистика раздачи
Размер:  1,39 GB   |    Зарегистрирован:  4 года 1 месяц   |    Скачан:  6 раз

Полного источника не было: 7 месяцев

Сидов:  0  |  0 KB/s  ]   Личеров:  0  |  0 KB/s  ]

* - сиды/пиры с внешних источников

   
 
Автор Сообщение

RG NewCinema 

29-Окт-2012 01:50

Козёл отпущения / The Scapegoat


Год выпуска: 2012
Жанр: драма
Страна: Великобритания
Режиссер: Чарльз Старридж
В ролях: Эндрю Скотт, Шеридан Смит, Джоди Мэй, Мэттью Риз, Айлин Эткинс, Фиби Николлс, Энтон Лессер, Пип Торренс, Сильви Тестю, Джулиан Уэдэм
Сюжет фильма:
История разворачивается в 1952 году, когда Англия готовится к коронации. «Козёл отпущения» рассказывает историю двух очень разных людей, у которых есть кое-что общее — лицо.

  • Мировая премьера: 9 сентября 2012

|
Качество видео: HDTVRip

Продолжительность: 01:40:17
Формат: AVI
Видео: XviD, 720x400, 1202 kbps
Аудио #1: русский, двухголосый закадровый [студия "Райдо"], AC3 2.0, 384 kbps
Аудио #2: английский, оригинал, AC3 2.0, 384 kbps

Код:

Общее
Полное имя : E:\Фильмы\Kozel otpusschenya.HDTVRip.Rus.Eng.Raidho.avi
Формат : AVI
Формат/Информация : Audio Video Interleave
Размер файла : 1,39 Гбайт
Продолжительность : 1 ч. 40 м.
Общий поток : 1984 Кбит/сек
Программа кодирования : VirtualDubMod 1.5.4.1 (build 2178/release)
Библиотека кодирования : VirtualDubMod build 2178/release
Видео
Идентификатор : 0
Формат : MPEG-4 Visual
Профиль формата : Advanced Simple@L5
Параметр BVOP формата : 1
Параметр QPel формата : Нет
Параметр GMC формата : Без точки перехода
Параметр матрицы формата : Default (H.263)
Идентификатор кодека : XVID
Идентификатор кодека/Подсказка : XviD
Продолжительность : 1 ч. 40 м.
Битрейт : 1202 Кбит/сек
Ширина : 720 пикселей
Высота : 400 пикселей
Соотношение сторон : 16:9
Частота кадров : 25,000 кадров/сек
Цветовое пространство : YUV
Субдискретизация насыщенности : 4:2:0
Битовая глубина : 8 бит
Тип развёртки : Прогрессивная
Метод сжатия : С потерями
Бит/(Пиксели*Кадры) : 0.167
Размер потока : 862 Мбайт (61%)
Библиотека кодирования : XviD 64
Аудио #1
Идентификатор : 1
Формат : AC-3
Формат/Информация : Audio Coding 3
Расширение режима : CM (complete main)
Параметр Endianness формата : Big
Идентификатор кодека : 2000
Продолжительность : 1 ч. 40 м.
Вид битрейта : Постоянный
Битрейт : 384 Кбит/сек
Каналы : 2 канала
Расположение каналов : Front: L R
Частота : 48,0 КГц
Битовая глубина : 16 бит
Метод сжатия : С потерями
Размер потока : 275 Мбайт (19%)
Выравнивание : Разделение по промежуткам
Продолжительность промежутка : 40 мс. (1,00 видеокадр)
Время предзагрузки промежутка : 500 мс.
Аудио #2
Идентификатор : 2
Формат : AC-3
Формат/Информация : Audio Coding 3
Расширение режима : CM (complete main)
Параметр Endianness формата : Big
Идентификатор кодека : 2000
Продолжительность : 1 ч. 40 м.
Вид битрейта : Постоянный
Битрейт : 384 Кбит/сек
Каналы : 2 канала
Расположение каналов : Front: L R
Частота : 48,0 КГц
Битовая глубина : 16 бит
Метод сжатия : С потерями
Размер потока : 275 Мбайт (19%)
Выравнивание : Разделение по промежуткам
Продолжительность промежутка : 40 мс. (1,00 видеокадр)
Время предзагрузки промежутка : 500 мс.
Семпл: http://multi-up.com/781661

picpicpic
Для увеличения картинки щелкните мышкой по превью

Этот торрент недоступен для скачивания без регистрации, однако доступен по публичной magnet-ссылке (источники с публичных трекеров). Перед использованием ссылки прочтите, пожалуйста Пользовательское соглашение, а также как можно дольше оставайтесь на раздаче! Для того, чтобы скачать сам торрент-файл (который видит больше источников), а также для того, чтобы поблагодарить релизера, вам необходимо зарегистрироваться. Если регистрироваться лень - вы можете также попробовать скачать релиз по нашим партнерским ссылкам ниже.

[underverse.su].t20901.torrent
Трекер: Зарегистрирован   [ 29.10.2012 01:50 ]  

Статус: проверено (by garry at 29.10.2012 09:09)
Поблагодарили: пока никто не поблагодарил...
Тип торрента: публичный - доступные источники с открытых трекеров: 
Размер: 1,39 GB (занимает 0,32 DVDR, для записи нужно 1 болванка DVDR/RW)
 
 
Похожие темы
Форум Тема Автор Торрент Отв. Посл. сооб.
Зарубежное кино [DVDRip, Low-Res HDRip, и т.д.] Козел отпущения / The Scapegoat (Чарльз Старридж / Charles Sturridge) [2012, Драма, DVDRip] MVO [BaibaKo] Garnett
29 | 2

0 | 506

9

26.12.2012 12:22

* Зарубежное кино [DVDRip, Low-Res HDRip, и т.д.] Козел отпущения / The Scapegoat (Чарльз Старридж) [2012, Драма, DVDRip] MVO [BaibaKo] Garnett

0 | 486

26.12.2012 12:34


Яндекс.Метрика powered by Sphinx


В Н И М А Н И Е
Сайт не распространяет и не хранит электронные версии произведений, а лишь бесплатно и без коммерческой выгоды (не требуя взамен платы,
SMS и т.д.) предоставляет доступ к создаваемому пользователями каталогу ссылок на торрент-файлы, которые содержат только списки хеш-сумм.
Убедительная просьба с жалобами обращаться напрямую к пользователю, разместившему торрент файл.

Вверх