Loading...
Error

Одесса-мама / Серии: 1-12 (12) (Марк Горобец) [2012, Детектив, SATRip]

Статистика раздачи
Размер:  5,5 GB   |    Зарегистрирован:  4 года 1 месяц   |    Скачан:  29 раз

Полного источника не было: 2 года

Сидов:  0  |  0 KB/s  ]   Личеров:  0  |  0 KB/s  ]

* - сиды/пиры с внешних источников

   
 
Автор Сообщение

nemos Пол:Муж

24-Окт-2012 17:37



Год выпуска: 2012
Жанр: детектив
Страна: Украина
Режиссер: Марк Горобец
В ролях: Дмитрий Дюжев, Екатерина Гусева, Эвклид Кюрдзидис, Петр Федоров, Светлана Устинова, Александр Доронин, Тимофей Трибунцев, Константин Косинский, Станислав Боклан, Олеся Жураковская
Сюжет фильма:
Одессу называли по-разному: «Жемчужина Черного моря», «Маленький Париж», «Южная Пальмира», однако репутация «главной воровской столицы страны» прочно закрепила за этим живописным городом еще одно название — «Одесса-мама». Приморский город с его колоритным юмором, особым свободолюбивым духом и неиссякаемой коммерческой жилкой издавна становился приютом для тех, кто не в ладу с законом. И совсем не удивительно, что в историю города вписаны не только знаменитые мошенники, бандиты и воры, но и отважные стражи правопорядка…


Качество видео: SatRip

Продолжительность: 00:39:45серия
Формат: AVI
Видео: DivX, 720x400, 1500kbps
Аудио: русский, MP3 2.0, 128 kbps

Код:

E:\ÑÊÀ×ÊÈ\Ñ underverse\Îäåññà-ìàìà\Odessa-Mama.12.SATRip.avi
   General
      Complete name : E:\ÑÊÀ×ÊÈ\Ñ underverse\Îäåññà-ìàìà\Odessa-Mama.12.SATRip.avi
      Format : AVI
      Format/Info : Audio Video Interleave
      File size : 466 MiB
      Duration : 39mn 45s
      Overall bit rate : 1 638 Kbps
      Writing application : VirtualDubModRus 1.5.10.1 (build 2439/release)
      Writing library : VirtualDubMod build 2439/release
   Video #0
      ID : 0
      Format : MPEG-4 Visual
      Format settings, BVOP : 1
      Format settings, QPel : No
      Format settings, GMC : No warppoints
      Format settings, Matrix : Default (H.263)
      Muxing mode : Packed bitstream
      Codec ID : DX50
      Codec ID/Hint : DivX 5
      Duration : 39mn 45s
      Bit rate : 1 500 Kbps
      Width : 720 pixels
      Height : 400 pixels
      Display aspect ratio : 16:9
      Frame rate : 25.000 fps
      Color space : YUV
      Chroma subsampling : 4:2:0
      Bit depth : 8 bits
      Scan type : Progressive
      Compression mode : Lossy
      Bits/(Pixel*Frame) : 0.208
      Stream size : 427 MiB (92%)
      Writing library : DivX 6.8.5 (UTC 2009-08-20)
   Audio #1
      ID : 1
      Format : MPEG Audio
      Format version : Version 1
      Format profile : Layer 2
      Codec ID : 50
      Duration : 39mn 45s
      Bit rate mode : Constant
      Bit rate : 128 Kbps
      Channel(s) : 2 channels
      Sampling rate : 48.0 KHz
      Compression mode : Lossy
      Stream size : 36.4 MiB (8%)
      Alignment : Aligned on interleaves
      Interleave, duration : 40 ms (1.00 video frame)
      Interleave, preload duration : 504 ms
Семпл: http://multi-up.com/780126

picpicpicpicpicpicpicpicpicpicpicpic
Для увеличения картинки щелкните мышкой по превью

Этот торрент недоступен для скачивания без регистрации, однако доступен по публичной magnet-ссылке (источники с публичных трекеров). Перед использованием ссылки прочтите, пожалуйста Пользовательское соглашение, а также как можно дольше оставайтесь на раздаче! Для того, чтобы скачать сам торрент-файл (который видит больше источников), а также для того, чтобы поблагодарить релизера, вам необходимо зарегистрироваться. Если регистрироваться лень - вы можете также попробовать скачать релиз по нашим партнерским ссылкам ниже.

[underverse.su].t20820.torrent
Трекер: Зарегистрирован   [ 26.10.2012 15:38 ]  

Статус: проверено (by garry at 26.10.2012 16:55)
Поблагодарили: 2 человека
Тип торрента: публичный - доступные источники с открытых трекеров: 
Размер: 5,5 GB (занимает 1,26 DVDR, для записи нужно 2 болванки DVDR/RW)
 
 


Последний раз редактировалось: nemos (06.11.2014 12:31), всего редактировалось 4 раз(а)

nemos Пол:Муж

26-Окт-2012 15:38

Обновлена

alina180 Пол:Муж

26-Окт-2012 22:28

nemos писал(а):

Одесса-мама
Уважаемый автор станьте пожалуйтса на раздачу х.ф.Одесса-мама.Заранее большое спасибо.

ReLD Пол:Муж

29-Янв-2013 16:16

Автор вернись на раздачу!

Яндекс.Метрика powered by Sphinx


В Н И М А Н И Е
Сайт не распространяет и не хранит электронные версии произведений, а лишь бесплатно и без коммерческой выгоды (не требуя взамен платы,
SMS и т.д.) предоставляет доступ к создаваемому пользователями каталогу ссылок на торрент-файлы, которые содержат только списки хеш-сумм.
Убедительная просьба с жалобами обращаться напрямую к пользователю, разместившему торрент файл.

Вверх