Loading...
Error

Любовь как несчастный случай / Серии: 1-4 (4) (Александр Кананович) [2012, Мелодрама, SATRip]

Статистика раздачи
Размер:  2,2 GB   |    Зарегистрирован:  4 года 1 месяц   |    Скачан:  2 раза

Полного источника не было: 2 года

Сидов:  0  |  0 KB/s  ]   Личеров:  0  |  0 KB/s  ]

* - сиды/пиры с внешних источников

   
 
Автор Сообщение

nemos Пол:Муж

24-Окт-2012 16:33

Любовь как несчастный случай


Год выпуска: 2012
Жанр: мелодрама
Страна: Россия
Режиссер: Александр Кананович
В ролях: Анна Миклош, Андрей Биланов, Андрей Финягин, Константин Задворный, Сергей Широчин, Михаил Есьман, Сергей Пукита, Игорь Денисов, Андрей Олефиренко, Владимир Мищанчук
Сюжет фильма:
Современная молодая женщина-хирург решает провести отпуск вместе со своим парнем, которого отправляют в командировку в маленький районный центр Восточной Сибири. На далёком лесном кордоне не может разродиться жена лесника, и столичная девушка отправляется в опасное путешествие на «кукурузнике» местного летчика. В избе лесника, на обеденном столе героиня при помощи подручных средств делает кесарево сечение и спасает роженицу и ее ребенка.

Обратный путь полон опасных приключений. За несколько сумасшедших дней, проведенных при экстремальных обстоятельствах, героиня и местный лётчик понимают, что безнадежно влюблены. Поначалу герои воспринимают свою любовь, как несчастный случай, — ведь они существа из разных миров, и наверняка никогда не смогут быть вместе. Но для настоящего, глубокого чувства не существует преград и границ.


Качество видео: SatRip

Продолжительность: 00:50:21серия
Формат: AVI
Видео: DivX, 720x416 , 1598 kbps
Аудио: русский, MP3 2.0, 128kbps

Код:

E:\ÑÊÀ×ÊÈ\Ñ underverse\Ljubovj_kak_neschastnyj_sluchaj_2012_SATRip\Ljubovj_kak_neschastnyj_sluchaj_04_2012_SATRip.avi
   General
      Complete name : E:\ÑÊÀ×ÊÈ\Ñ underverse\Ljubovj_kak_neschastnyj_sluchaj_2012_SATRip\Ljubovj_kak_neschastnyj_sluchaj_04_2012_SATRip.avi
      Format : AVI
      Format/Info : Audio Video Interleave
      File size : 625 MiB
      Duration : 50mn 21s
      Overall bit rate : 1 735 Kbps
      Writing library : VirtualDub-MPEG2 build 24600/release
   Video #0
      ID : 0
      Format : MPEG-4 Visual
      Format profile : Simple@L3
      Format settings, BVOP : No
      Format settings, QPel : No
      Format settings, GMC : No warppoints
      Format settings, Matrix : Default (H.263)
      Codec ID : DX50
      Codec ID/Hint : DivX 5
      Duration : 50mn 21s
      Bit rate : 1 598 Kbps
      Width : 720 pixels
      Height : 416 pixels
      Display aspect ratio : 1.731
      Frame rate : 25.000 fps
      Color space : YUV
      Chroma subsampling : 4:2:0
      Bit depth : 8 bits
      Scan type : Progressive
      Compression mode : Lossy
      Bits/(Pixel*Frame) : 0.213
      Stream size : 575 MiB (92%)
      Writing library : XviD 1.2.1 (UTC 2008-12-04)
   Audio #1
      ID : 1
      Format : MPEG Audio
      Format version : Version 1
      Format profile : Layer 3
      Mode : Joint stereo
      Mode extension : MS Stereo
      Codec ID : 55
      Codec ID/Hint : MP3
      Duration : 50mn 21s
      Bit rate mode : Constant
      Bit rate : 128 Kbps
      Channel(s) : 2 channels
      Sampling rate : 48.0 KHz
      Compression mode : Lossy
      Stream size : 46.1 MiB (7%)
      Alignment : Split accross interleaves
      Interleave, duration : 40 ms (1.00 video frame)
      Interleave, preload duration : 500 ms
      Writing library : LAME3.98.2
Семпл: http://multi-up.com/780097

picpicpicpicpicpicpicpicpicpicpicpic
Для увеличения картинки щелкните мышкой по превью

Этот торрент недоступен для скачивания без регистрации, однако доступен по публичной magnet-ссылке (источники с публичных трекеров). Перед использованием ссылки прочтите, пожалуйста Пользовательское соглашение, а также как можно дольше оставайтесь на раздаче! Для того, чтобы скачать сам торрент-файл (который видит больше источников), а также для того, чтобы поблагодарить релизера, вам необходимо зарегистрироваться. Если регистрироваться лень - вы можете также попробовать скачать релиз по нашим партнерским ссылкам ниже.

[underverse.su].t20781.torrent
Трекер: Зарегистрирован   [ 24.10.2012 16:33 ]  

Статус: проверено (by garry at 24.10.2012 16:35)
Поблагодарили: пока никто не поблагодарил...
Тип торрента: публичный - доступные источники с открытых трекеров: 
Размер: 2,2 GB (занимает 0,5 DVDR, для записи нужно 1 болванка DVDR/RW)
 
 
Похожие темы
Форум Тема Автор Торрент Отв. Посл. сооб.
Зарубежное кино [DVDRip, Low-Res HDRip, и т.д.] Любовь как яд / Un poison violent (Кэйтель Куиливье) [2010 г., драма, DVDRip] VO Паукан
1 | 1

0 | 807

3

01.08.2014 14:19

# xUSSR сериалы Любовь как стихийное бедствие [01-02 из 02] (Дмитрий Петрунь) [2016 г., мелодрама, HDTVRip] 90ytr90
67 | 6

0 | 178

7

25.09.2016 11:42


Яндекс.Метрика powered by Sphinx


В Н И М А Н И Е
Сайт не распространяет и не хранит электронные версии произведений, а лишь бесплатно и без коммерческой выгоды (не требуя взамен платы,
SMS и т.д.) предоставляет доступ к создаваемому пользователями каталогу ссылок на торрент-файлы, которые содержат только списки хеш-сумм.
Убедительная просьба с жалобами обращаться напрямую к пользователю, разместившему торрент файл.

Вверх