Loading...
Error

Судный день / The Day (Дуглас Арниокоски) [2011 г., фантастика, триллер, драма, HDRip] MVO

Статистика раздачи
Размер:  1,46 GB   |    Зарегистрирован:  4 года 1 месяц   |    Скачан:  26 раз

Полного источника не было: 11 месяцев

Сидов:  0  |  0 KB/s  ]   Личеров:  0  |  0 KB/s  ]

* - сиды/пиры с внешних источников

   
 
Автор Сообщение

RG NewCinema 

22-Окт-2012 18:13

Судный день / The Day


Год выпуска: 2011
Жанр: фантастика, триллер, драма
Страна: США
Режиссер: Дуглас Арниокоски
В ролях: Шон Эшмор, Эшли Белл, Кори Хардрикт, Доминик Монахэн, Шаннин Соссамон, Майкл Эклунд, Брайана Барнс, Кэссиди Верро, София Эванюк, Роберт Болдуин
Сюжет фильма:
После вселенской катастрофы Земля превратилась в выжженную пустыню. По бескрайним дорогам, кишащим бандитами, враждующими между собой за еду, странствуют пятеро. Надеясь найти покой, они останавливаются в доме, который легко превращается в ловушку. Сможет ли кто-то выйти живым?

  • Мировая премьера: 26 января 2012
  • Российская премьера: 20 сентября 2012, «Премиум Фильм»

|
Качество видео: HDRip

Продолжительность: 01:30:00
Формат: avi
Видео: XviD, 720x400, 1859 kbps
Аудио: русский, многоголосый закадровый [профессиональный], AC3 5.1, 448 kbps

Код:

General
Complete name                    : D:\Video\Sudnyj.den.2011.P.HDRip.IRONCLUB.avi
Format                           : AVI
Format/Info                      : Audio Video Interleave
File size                        : 1.46 GiB
Duration                         : 1h 30mn
Overall bit rate                 : 2 317 Kbps
Movie name                       : Sudnyj.den.2011.P.HDRip.IRONCLUB
Director                         : IRONCLUB
Genre                            : Drama | Sci-Fi | Thriller
Writing application              : VirtualDubMod 1.5.10.2 (build 2540/release)
Original source form/Name        : Movie
Copyright                        : http://ironclub.tv/

Video
ID                               : 0
Format                           : MPEG-4 Visual
Format profile                   : Streaming Video@L1
Format settings, BVOP            : Yes
Format settings, QPel            : No
Format settings, GMC             : No warppoints
Format settings, Matrix          : Custom
Codec ID                         : XVID
Codec ID/Hint                    : XviD
Duration                         : 1h 30mn
Bit rate                         : 1 860 Kbps
Width                            : 720 pixels
Height                           : 400 pixels
Display aspect ratio             : 16/9
Frame rate                       : 24.000 fps
Resolution                       : 24 bits
Colorimetry                      : 4:2:0
Scan type                        : Progressive
Bits/(Pixel*Frame)               : 0.269
Stream size                      : 1.17 GiB (80%)
Writing library                  : XviD 1.2.1 (UTC 2008-12-04)

Audio
ID                               : 1
Format                           : AC-3
Format/Info                      : Audio Coding 3
Codec ID                         : 2000
Duration                         : 1h 30mn
Bit rate mode                    : Constant
Bit rate                         : 448 Kbps
Channel(s)                       : 6 channels
Channel positions                : Front: L C R, Surround: L R, LFE
Sampling rate                    : 48.0 KHz
Stream size                      : 288 MiB (19%)
Alignment                        : Split accross interleaves
Interleave, duration             : 42 ms (1.00 video frame)
Interleave, preload duration     : 500 ms

Семпл: http://www.multiupload.nl/BI2P485W9X

Релиз группы:

picpicpic
Для увеличения картинки щелкните мышкой по превью

Этот торрент недоступен для скачивания без регистрации, однако доступен по публичной magnet-ссылке (источники с публичных трекеров). Перед использованием ссылки прочтите, пожалуйста Пользовательское соглашение, а также как можно дольше оставайтесь на раздаче! Для того, чтобы скачать сам торрент-файл (который видит больше источников), а также для того, чтобы поблагодарить релизера, вам необходимо зарегистрироваться. Если регистрироваться лень - вы можете также попробовать скачать релиз по нашим партнерским ссылкам ниже.

[underverse.su].t20742.torrent
Трекер: Зарегистрирован   [ 22.10.2012 18:13 ]  

Статус: проверено (by garry at 22.10.2012 18:27)
Поблагодарили: 2 человека
Тип торрента: публичный - доступные источники с открытых трекеров: 
Размер: 1,46 GB (занимает 1/3 DVDR, для записи нужно 1 болванка DVDR/RW)
 
 
Похожие темы
Форум Тема Автор Торрент Отв. Посл. сооб.
Зарубежное кино [DVDRip, Low-Res HDRip, и т.д.] Судный день / The Day (Дуглас Арниокоски) [2011 г., фантастика, триллер, драма, HDRip-AVC] MVO Garnett
10 | 1

0 | 978

31

25.10.2012 07:37

Зарубежное кино [DVDRip, Low-Res HDRip, и т.д.] Судный день / The Day (Дуглас Арниокоски) [2011 г., фантастика, триллер, драма, HDRip] MVO Garnett
6 | 0

0 | 813

15

31.10.2012 13:41

Зарубежное кино [DVDRip, Low-Res HDRip, и т.д.] Судный день Дэна / Dannys dommedag (Мартин Барнвитц / Martin Barnewitz) [2014 г., приключения, WEB-DLRip] DVO (DeadSno & den904) 90ytr90
3 | 0

0 | 648

22

16.03.2015 17:01

Архив Судный день / Doomsday (Нил Маршалл /Neil Marshall) [2008 г., Фантастика, Боевик, Триллер, DVDRip] GanibalKing
1 | 0

6 | 1327

9

12.11.2010 23:48


Яндекс.Метрика powered by Sphinx


В Н И М А Н И Е
Сайт не распространяет и не хранит электронные версии произведений, а лишь бесплатно и без коммерческой выгоды (не требуя взамен платы,
SMS и т.д.) предоставляет доступ к создаваемому пользователями каталогу ссылок на торрент-файлы, которые содержат только списки хеш-сумм.
Убедительная просьба с жалобами обращаться напрямую к пользователю, разместившему торрент файл.

Вверх