Loading...
Error

Мой кузен Винни / My Cousin Vinny (Джонатан Линн) [1992 г., комедия, криминал, BDRip] MVO

Статистика раздачи
Размер:  1,46 GB   |    Зарегистрирован:  4 года 1 месяц   |    Скачан:  11 раз

Полного источника не было: 1 месяц 22 дня

Сидов:  0  |  0 KB/s  ]   Личеров:  0  |  0 KB/s  ]

* - сиды/пиры с внешних источников

   
 
Автор Сообщение

garry Пол:Муж

22-Окт-2012 16:38

Мой кузен Винни / My Cousin Vinny


Год выпуска: 1992
Жанр: комедия, криминал
Страна: США
Режиссер: Джонатан Линн
В ролях: Джо Пеши, Ральф Маччио, Мариса Томей, Митчел Уитфилд, Фред Гуинн, Лейн Смит, Остин Пендлтон, Брюс МакГилл, Мори Чайкин, Полин Майерс
Сюжет фильма:
Винни Гамбини мечтал стать адвокатом еще когда сидел за решеткой. Поэтому когда кузен Билл попросил спасти его от тюрьмы, он понял, что «звездный» час Винсента Гамбини настал.

А грозит бесшабашному Биллу и его дружку Стэну немало — их ошибочно обвинили в убийстве продавца в городке, где они были проездом. Думая, что их обвиняют в мелкой магазинной краже, они подписали признания.

У наивного грубоватого Винни, пародии на адвоката, который ни разу не был в суде, имеется, однако, секретное оружие — способность скандалить без устали часами напролет. Он и его бойкая на язык, сексапильная подружка Мона Лиза едут в маленький городок, чтобы вытащить эту парочку из беды.

Почтенному населению города и его системе правосудия предстоит испытать самый глубокий шок за всю его историю…

  • Мировая премьера: 13 марта 1992


Качество видео: BDRip

Продолжительность: 01:59:18
Формат: avi
Видео: XviD, 704x384, 1545 kbps
Аудио: русский, многоголосый закадровый [профессиональный], AC3 2.0, 192 kbps

Код:

General
Complete name                    : D:\Video\Movies\My.Cousin.Vinny.1992.bdrip_[1.46]_[teko].avi
Format                           : AVI
Format/Info                      : Audio Video Interleave
File size                        : 1.46 GiB
Duration                         : 1h 59mn
Overall bit rate                 : 1 747 Kbps
Writing application              : VirtualDubMod 1.5.10.3 | www.virtualdub-fr.org || (build 2550/release)
Writing library                  : VirtualDubMod build 2550/release

Video
ID                               : 0
Format                           : MPEG-4 Visual
Format profile                   : Streaming Video@L1
Format settings, BVOP            : Yes
Format settings, QPel            : No
Format settings, GMC             : No warppoints
Format settings, Matrix          : Custom
Codec ID                         : XVID
Codec ID/Hint                    : XviD
Duration                         : 1h 59mn
Bit rate                         : 1 546 Kbps
Width                            : 704 pixels
Height                           : 384 pixels
Display aspect ratio             : 16/9
Frame rate                       : 23.976 fps
Resolution                       : 24 bits
Colorimetry                      : 4:2:0
Scan type                        : Progressive
Bits/(Pixel*Frame)               : 0.238
Stream size                      : 1.29 GiB (88%)
Writing library                  : XviD 63

Audio
ID                               : 1
Format                           : AC-3
Format/Info                      : Audio Coding 3
Codec ID                         : 2000
Duration                         : 1h 59mn
Bit rate mode                    : Constant
Bit rate                         : 192 Kbps
Channel(s)                       : 2 channels
Channel positions                : L R
Sampling rate                    : 48.0 KHz
Stream size                      : 164 MiB (11%)
Alignment                        : Split accross interleaves
Interleave, duration             : 42 ms (1.00 video frame)
Interleave, preload duration     : 500 ms

Семпл: http://multi-up.com/779104

picpicpic
Для увеличения картинки щелкните мышкой по превью

Этот торрент недоступен для скачивания без регистрации, однако доступен по публичной magnet-ссылке (источники с публичных трекеров). Перед использованием ссылки прочтите, пожалуйста Пользовательское соглашение, а также как можно дольше оставайтесь на раздаче! Для того, чтобы скачать сам торрент-файл (который видит больше источников), а также для того, чтобы поблагодарить релизера, вам необходимо зарегистрироваться. Если регистрироваться лень - вы можете также попробовать скачать релиз по нашим партнерским ссылкам ниже.

[underverse.su].t20738.torrent
Трекер: Зарегистрирован   [ 22.10.2012 16:38 ]  

Статус: проверено (by garry at 22.10.2012 16:39)
Поблагодарили: 1 человек
Тип торрента: публичный - доступные источники с открытых трекеров: 
Размер: 1,46 GB (занимает 1/3 DVDR, для записи нужно 1 болванка DVDR/RW)
 
 

Яндекс.Метрика powered by Sphinx


В Н И М А Н И Е
Сайт не распространяет и не хранит электронные версии произведений, а лишь бесплатно и без коммерческой выгоды (не требуя взамен платы,
SMS и т.д.) предоставляет доступ к создаваемому пользователями каталогу ссылок на торрент-файлы, которые содержат только списки хеш-сумм.
Убедительная просьба с жалобами обращаться напрямую к пользователю, разместившему торрент файл.

Вверх