Loading...
Error

Космополис / Cosmopolis (Дэвид Кроненберг / David Cronenberg) [2012 г., триллер, драма, BDRip-AVC] Dub + Original

Статистика раздачи
Размер:  2,18 GB   |    Зарегистрирован:  4 года 1 месяц   |    Скачан:  12 раз

Полного источника не было: 4 месяца 27 дней

Сидов:  0  |  0 KB/s  ]   Личеров:  0  |  0 KB/s  ]

* - сиды/пиры с внешних источников

   
 
Автор Сообщение

Garnett Пол:Муж

22-Окт-2012 15:49

Космополис / Cosmopolis


Год выпуска: 2012
Жанр: триллер, драма
Страна: Канада , Франция , Португалия , Италия
Режиссер: Дэвид Кроненберг / David Cronenberg
В ролях: Роберт Паттинсон, Сара Гадон, Пол Джаматти, Кевин Дюран, Абдул Айула, Жюльетт Бинош, Эмили Хэмпшир, Боб Бэйнборо, Саманта Мортон, Желько Кесойевич, Джей Барушель, Филлип Нозука, Матье Амальрик, Патриция МакКензи, Райан Келли, Надим Умар-Хитаб, Альберт Гомез, Гучи Бой, Дэвид Шаап, Уоррен Чоу, Джордж Тулиатос, Джейдин Вонг, К’Наан, Инесса Франтовски, Джонатан Сейнен, Милтон Барнс, Джон Баткис, Саад Сиддикуи, Анна Хардвик, Мария Хуан Гарсиаз, Полетт Синклер
Сюжет фильма:
24 часа из жизни 28-летнего миллиардера-финансиста Эрика Пэкера, который изменяет своей молодой жене, подвергается нападению и разом теряет все свое состояние. Действие ленты будет разворачиваться на Манхэттене в течение одних суток.
Качество видео: BDRip-AVC

Продолжительность: 01:48:51
Формат: MKV
Видео: x264, 944x510, 2098 kbps
Аудио #1: русский, дублированный [лицензия], AC3 5.1, 384 kbps
Аудио #2: английский, оригинал, AC3 5.1, 384 kbps
Субтитры: русские (по дубляжу), русские (Groby), английские, французские, португальские, softsub (SRT)

Код:

General
Unique ID : 249724805065209079613661293715380904440 (0xBBDF3F7C7A65131E9A58AD4B844E21F8)
Complete name : E:\Kosmopolis.2012.x264.BDRip.(AVC).fanatus.mkv
Format : Matroska
Format version : Version 2
File size : 2.18 GiB
Duration : 1h 48mn
Overall bit rate : 2 868 Kbps
Movie name : Cosmopolis (2012) - fanatus
Encoded date : UTC 2012-10-19 19:11:20
Writing application : mkvmerge v3.4.0 ('Rapunzel') сборка от May 15 2010 09:38:20
Writing library : libebml v0.8.0 + libmatroska v0.9.0
Video
ID : 1
Format : AVC
Format/Info : Advanced Video Codec
Format profile : High@L4.1
Format settings, CABAC : Yes
Format settings, ReFrames : 12 frames
Codec ID : V_MPEG4/ISO/AVC
Duration : 1h 48mn
Bit rate : 2 098 Kbps
Width : 944 pixels
Height : 510 pixels
Display aspect ratio : 1.85:1
Frame rate : 24.000 fps
Color space : YUV
Chroma subsampling : 4:2:0
Bit depth : 8 bits
Scan type : Progressive
Bits/(Pixel*Frame) : 0.182
Stream size : 1.55 GiB (71%)
Title : Cosmopolis (2012) - fanatus
Writing library : x264 core 128 r2216 198a7ea
Encoding settings : cabac=1 / ref=12 / deblock=1:-2:-1 / analyse=0x3:0x113 / me=umh / subme=11 / psy=1 / psy_rd=1.00:0.05 / mixed_ref=1 / me_range=48 / chroma_me=1 / trellis=2 / 8x8dct=1 / cqm=0 / deadzone=21,11 / fast_pskip=0 / chroma_qp_offset=-3 / threads=16 / lookahead_threads=2 / sliced_threads=0 / nr=0 / decimate=0 / interlaced=0 / bluray_compat=0 / constrained_intra=0 / bframes=9 / b_pyramid=2 / b_adapt=2 / b_bias=0 / direct=3 / weightb=1 / open_gop=0 / weightp=2 / keyint=240 / keyint_min=24 / scenecut=40 / intra_refresh=0 / rc_lookahead=40 / rc=2pass / mbtree=0 / bitrate=2098 / ratetol=1.0 / qcomp=0.60 / qpmin=0 / qpmax=69 / qpstep=3 / cplxblur=20.0 / qblur=0.5 / vbv_maxrate=50000 / vbv_bufsize=62500 / nal_hrd=none / ip_ratio=1.30 / pb_ratio=1.20 / aq=1:0.90 / zones=150953,156744,q=40
Language : English
Default : Yes
Forced : No
Matrix coefficients : BT.709-5, BT.1361, IEC 61966-2-4 709, SMPTE RP177
Audio #1
ID : 2
Format : AC-3
Format/Info : Audio Coding 3
Mode extension : CM (complete main)
Format settings, Endianness : Big
Codec ID : A_AC3
Duration : 1h 48mn
Bit rate mode : Constant
Bit rate : 384 Kbps
Channel(s) : 6 channels
Channel positions : Front: L C R, Side: L R, LFE
Sampling rate : 48.0 KHz
Bit depth : 16 bits
Compression mode : Lossy
Stream size : 299 MiB (13%)
Title : Dub
Language : Russian
Default : Yes
Forced : Yes
Audio #2
ID : 3
Format : AC-3
Format/Info : Audio Coding 3
Mode extension : CM (complete main)
Format settings, Endianness : Big
Codec ID : A_AC3
Duration : 1h 48mn
Bit rate mode : Constant
Bit rate : 384 Kbps
Channel(s) : 6 channels
Channel positions : Front: L C R, Side: L R, LFE
Sampling rate : 48.0 KHz
Bit depth : 16 bits
Compression mode : Lossy
Stream size : 299 MiB (13%)
Title : Original
Language : English
Default : No
Forced : No
Text #1
ID : 4
Format : UTF-8
Codec ID : S_TEXT/UTF8
Codec ID/Info : UTF-8 Plain Text
Title : Dub
Language : Russian
Default : No
Forced : No
Text #2
ID : 5
Format : UTF-8
Codec ID : S_TEXT/UTF8
Codec ID/Info : UTF-8 Plain Text
Title : Groby
Language : Russian
Default : No
Forced : No
Text #3
ID : 6
Format : UTF-8
Codec ID : S_TEXT/UTF8
Codec ID/Info : UTF-8 Plain Text
Language : English
Default : No
Forced : No
Text #4
ID : 7
Format : UTF-8
Codec ID : S_TEXT/UTF8
Codec ID/Info : UTF-8 Plain Text
Language : French
Default : No
Forced : No
Text #5
ID : 8
Format : UTF-8
Codec ID : S_TEXT/UTF8
Codec ID/Info : UTF-8 Plain Text
Language : Portuguese
Default : No
Forced : No
Menu
00:00:00.000 : :Chapter 01
00:05:55.916 : :Chapter 02
00:13:24.166 : :Chapter 03
00:20:59.000 : :Chapter 04
00:29:11.500 : :Chapter 05
00:35:52.375 : :Chapter 06
00:44:52.541 : :Chapter 07
00:49:30.083 : :Chapter 08
00:56:28.750 : :Chapter 09
01:01:14.041 : :Chapter 10
01:07:30.291 : :Chapter 11
01:17:24.458 : :Chapter 12
picpicpic
Для увеличения картинки щелкните мышкой по превью

Этот торрент недоступен для скачивания без регистрации, однако доступен по публичной magnet-ссылке (источники с публичных трекеров). Перед использованием ссылки прочтите, пожалуйста Пользовательское соглашение, а также как можно дольше оставайтесь на раздаче! Для того, чтобы скачать сам торрент-файл (который видит больше источников), а также для того, чтобы поблагодарить релизера, вам необходимо зарегистрироваться. Если регистрироваться лень - вы можете также попробовать скачать релиз по нашим партнерским ссылкам ниже.

[underverse.su].t20734.torrent
Трекер: Зарегистрирован   [ 22.10.2012 15:49 ]  

Статус: проверено (by garry at 22.10.2012 15:52)
Поблагодарили: 2 человека
Тип торрента: публичный - доступные источники с открытых трекеров: 
Размер: 2,18 GB (занимает 1/2 DVDR, для записи нужно 1 болванка DVDR/RW)
 
 
Похожие темы
Форум Тема Автор Торрент Отв. Посл. сооб.
Зарубежное кино [DVDRip, Low-Res HDRip, и т.д.] Космополис / Cosmopolis (Дэвид Кроненберг) [2012 г., триллер, драма, DVDRip] [лицензия] 90ytr90
0 | 0

4 | 4644

431

06.02.2013 08:45

Зарубежное кино [DVDRip, Low-Res HDRip, и т.д.] Космополис / Cosmopolis (Дэвид Кроненберг) [2012 г., триллер, драма, BDRip] Dub + Original 90ytr90
7 | 0

0 | 436

8

24.12.2012 21:15


Яндекс.Метрика powered by Sphinx


В Н И М А Н И Е
Сайт не распространяет и не хранит электронные версии произведений, а лишь бесплатно и без коммерческой выгоды (не требуя взамен платы,
SMS и т.д.) предоставляет доступ к создаваемому пользователями каталогу ссылок на торрент-файлы, которые содержат только списки хеш-сумм.
Убедительная просьба с жалобами обращаться напрямую к пользователю, разместившему торрент файл.

Вверх