Loading...
Error

247 градусов по Фаренгейту / 247° F (Levan Bakhia, Beqa Jguburia) [2011 г., ужасы, триллер, HDRip] VO (den904)

Статистика раздачи
Размер:  1,36 GB   |    Зарегистрирован:  4 года 1 месяц   |    Скачан:  23 раза

Полного источника не было: 6 часов

Сидов:  0  |  0 KB/s  ]   Личеров:  0  |  0 KB/s  ]

* - сиды/пиры с внешних источников

   
 
Автор Сообщение

DarkAngel Пол:Муж

21-Окт-2012 20:52

247 градусов по Фаренгейту / 247° F


Год выпуска: 2011
Жанр: ужасы, триллер
Страна: Грузия
Режиссер: Levan Bakhia, Beqa Jguburia
В ролях: Скаут Тэйлор-Комптон, Трэвис Ван Винкл, Майкл Копон, Кристина Уллоа, Тайлер Мэйн, Michael Andrew, George Dugashvili, Rene Etore, Tornike Gogrichiani, Ibrahim Idowu
Сюжет фильма:
Четверо друзей отправляются в дом на берегу озера, чтобы весело провести выходные… Но уик-энд превращается в настоящий кошмар, когда трое из них оказываются запертыми в горячей сауне. Температура стремительно растёт… Каждая минута дорога в борьбе за выживание…

  • Мировая премьера: 1 сентября 2011

Качество видео: HDRip

Продолжительность: 01:27:43
Формат: AVI
Видео: XviD, 720x304 , 1756 kbps
Аудио: русский, одноголосый закадровый [любительский (den904)], AC3 5.1, 448 kbps

Код:

Общее
 Полное имя : D:\Торенты\247.Degrees.Fahrenheit.2011.L.HDRip.avi
 Формат : AVI
 Формат/Информация : Audio Video Interleave
 Размер файла : 1,36 Гбайт
 Продолжительность : 1 ч. 27 м.
 Общий поток : 2214 Кбит/сек
 Программа кодирования : VirtualDubMod 1.5.10.2 (build 2540/release)
 Библиотека кодирования : VirtualDubMod build 2540/release

Видео
 Идентификатор : 0
 Формат : MPEG-4 Visual
 Профиль формата : Advanced Simple@L5
 Параметр BVOP формата : 2
 Параметр QPel формата : Нет
 Параметр GMC формата : Без точки перехода
 Параметр матрицы формата : Default (MPEG)
 Идентификатор кодека : XVID
 Идентификатор кодека/Подсказка : XviD
 Продолжительность : 1 ч. 27 м.
 Битрейт : 1756 Кбит/сек
 Ширина : 720 пикс.
 Высота : 304 пикс.
 Соотношение сторон : 2,35:1
 Частота кадров : 23,976 кадр/сек
 Цветовое пространство : YUV
 Подвыборка цветности : 4:2:0
 Битовая глубина : 8 бит
 Тип развёртки : Прогрессивная
 Метод сжатия : С потерями
 Бит/(Пиксели*Кадры) : 0.335
 Размер потока : 1,08 Гбайт (79%)
 Библиотека кодирования : XviD 1.2.1 (UTC 2008-12-04)

Аудио
 Идентификатор : 1
 Формат : AC-3
 Формат/Информация : Audio Coding 3
 Расширение режима : CM (complete main)
 Идентификатор кодека : 2000
 Продолжительность : 1 ч. 27 м.
 Вид битрейта : Постоянный
 Битрейт : 448 Кбит/сек
 Каналы : 6 каналов
 Расположение каналов : Front: L C R, Side: L R, LFE
 Частота : 48,0 КГц
 Битовая глубина : 16 бит
 Метод сжатия : С потерями
 Размер потока : 281 Мбайт (20%)
 Выравнивание : Разделение по промежуткам
 Продолжительность промежутка : 42 мс. (1,00 видеокадр)
 Время предзагрузки промежутка : 500 ms
Семпл: http://multi-up.com/778623/

picpicpic
Для увеличения картинки щелкните мышкой по превью

Этот торрент недоступен для скачивания без регистрации, однако доступен по публичной magnet-ссылке (источники с публичных трекеров). Перед использованием ссылки прочтите, пожалуйста Пользовательское соглашение, а также как можно дольше оставайтесь на раздаче! Для того, чтобы скачать сам торрент-файл (который видит больше источников), а также для того, чтобы поблагодарить релизера, вам необходимо зарегистрироваться. Если регистрироваться лень - вы можете также попробовать скачать релиз по нашим партнерским ссылкам ниже.

[underverse.su].t20708.torrent
Трекер: Зарегистрирован   [ 21.10.2012 20:52 ]  

Статус: проверено (by garry at 21.10.2012 20:54)
Поблагодарили: пока никто не поблагодарил...
Тип торрента: публичный - доступные источники с открытых трекеров: 
Размер: 1,36 GB (занимает 0,31 DVDR, для записи нужно 1 болванка DVDR/RW)
 
 

Яндекс.Метрика powered by Sphinx


В Н И М А Н И Е
Сайт не распространяет и не хранит электронные версии произведений, а лишь бесплатно и без коммерческой выгоды (не требуя взамен платы,
SMS и т.д.) предоставляет доступ к создаваемому пользователями каталогу ссылок на торрент-файлы, которые содержат только списки хеш-сумм.
Убедительная просьба с жалобами обращаться напрямую к пользователю, разместившему торрент файл.

Вверх