Loading...
Error

Блудливая Калифорния / Californication / Сезон: 5, серии: 1-12 (Барт Фрейндлих, Адам Бернштейн, Джон Дал) [2012 г., драма, комедия, HDTVRip/WEBDLRip] MVO

Статистика раздачи
Размер:  4,15 GB   |    Зарегистрирован:  3 года 11 месяцев   |    Скачан:  10 раз

Полного источника не было: 12 часов

Сидов:  0  |  0 KB/s  ]   Личеров:  2  |  245 KB/s  ]

* - сиды/пиры с внешних источников

   
 
Автор Сообщение

garry Пол:Муж

19-Окт-2012 21:54

Блудливая Калифорния / Californication / Сезон: 5, серии: 1-12


Год выпуска: 2012
Жанр: драма, комедия
Страна: США
Режиссер: Барт Фрейндлих, Адам Бернштейн, Джон Дал
В ролях: Дэвид Духовны, Наташа МакЭлхоун, Мадлен Мартин, Эван Хэндлер, Памела Адлон, Мадлен Зима, Стивен Тоболовски, Каллум Кит Ренни, Рэйчел Майнер, Джейсон Бех
Сюжет фильма:
Известный писатель Хэнк Муди переживает творческий и личностный кризис. За пять лет он не написал ни строчки, лишился женщины, которую любил, и окончательно погряз в пороках: марихуане, алкоголе и связях-однодневках. Но он не теряет надежды вновь обрести потерянную семью и вернуться к творчеству.

Качество видео: HDTVRip, WEBDLRip

Продолжительность: ~00:30:00 x 12
Формат: avi
Видео: DivX 5, 720x400, 1366 kbps
Аудио #1: русский, многоголосый закадровый [профессиональный, Novafilm], AC3 2.0, 192 kbps
Аудио #2: английский, оригинал, AC3 2.0, 192 kbps

Код:

General
Complete name                    : D:\Downloads\Torrents\Californication.s05.hdtvrip.rus.eng.novafilm\californication.s05e01.hdtv.rus.eng.*другой трекер*.avi
Format                           : AVI
Format/Info                      : Audio Video Interleave
File size                        : 372 MiB
Duration                         : 29mn 27s
Overall bit rate                 : 1 765 Kbps
Writing application              : VirtualDubMod 1.5.10.2 (build 2542/release)
Writing library                  : VirtualDubMod build 2542/release

Video
ID                               : 0
Format                           : MPEG-4 Visual
Format settings, BVOP            : Yes
Format settings, QPel            : No
Format settings, GMC             : No warppoints
Format settings, Matrix          : Default (H.263)
Muxing mode                      : Packed bitstream
Codec ID                         : DX50
Codec ID/Hint                    : DivX 5
Duration                         : 29mn 27s
Bit rate                         : 1 367 Kbps
Width                            : 720 pixels
Height                           : 400 pixels
Display aspect ratio             : 16/9
Frame rate                       : 23.976 fps
Resolution                       : 24 bits
Colorimetry                      : 4:2:0
Scan type                        : Progressive
Bits/(Pixel*Frame)               : 0.198
Stream size                      : 288 MiB (77%)
Writing library                  : DivX 6.8.3 (UTC 2008-06-07)

Audio #1
ID                               : 1
Format                           : AC-3
Format/Info                      : Audio Coding 3
Codec ID                         : 2000
Duration                         : 29mn 27s
Bit rate mode                    : Constant
Bit rate                         : 192 Kbps
Channel(s)                       : 2 channels
Channel positions                : L R
Sampling rate                    : 48.0 KHz
Stream size                      : 40.4 MiB (11%)
Alignment                        : Split accross interleaves
Interleave, duration             : 42 ms (1.00 video frame)
Interleave, preload duration     : 500 ms

Audio #2
ID                               : 2
Format                           : AC-3
Format/Info                      : Audio Coding 3
Codec ID                         : 2000
Duration                         : 29mn 26s
Bit rate mode                    : Constant
Bit rate                         : 192 Kbps
Channel(s)                       : 2 channels
Channel positions                : L R
Sampling rate                    : 48.0 KHz
Stream size                      : 40.4 MiB (11%)
Alignment                        : Split accross interleaves
Interleave, duration             : 42 ms (1.00 video frame)
Interleave, preload duration     : 500 ms

Семпл: http://multi-up.com/627875

Релиз группы:

picpicpic
Для увеличения картинки щелкните мышкой по превью

Этот торрент недоступен для скачивания без регистрации, однако доступен по публичной magnet-ссылке (источники с публичных трекеров). Перед использованием ссылки прочтите, пожалуйста Пользовательское соглашение, а также как можно дольше оставайтесь на раздаче! Для того, чтобы скачать сам торрент-файл (который видит больше источников), а также для того, чтобы поблагодарить релизера, вам необходимо зарегистрироваться. Если регистрироваться лень - вы можете также попробовать скачать релиз по нашим партнерским ссылкам ниже.

[underverse.su].t20673.torrent
Трекер: Зарегистрирован   [ 17.12.2012 00:36 ]  

Статус: проверено (by garry at 17.12.2012 00:37)
Поблагодарили: пока никто не поблагодарил...
Тип торрента: публичный - доступные источники с открытых трекеров: 
Размер: 4,15 GB (занимает 0,95 DVDR, для записи нужно 1 болванка DVDR/RW)
 
 
Похожие темы
Форум Тема Автор Торрент Отв. Посл. сооб.
Зарубежные сериалы Блудливая Калифорния / Californication / Сезон: 1, серии: 1-12 (Дэвид Фон Энкен, Стивен Хопкинс, Кен Уиттингэм) [2007 г., драма, комедия, WEBDLRip] VO garry
63 | 8

0 | 1014

20

19.10.2012 21:18

Зарубежные сериалы Блудливая Калифорния / Californication / Сезон: 2, серии: 1-12 (Дэвид Духовны, Дэвид Фон Энкен, Майкл Леманн) [2008 г., драма, комедия, WEBDLRip] MVO garry
58 | 4

0 | 1146

19

19.10.2012 21:29

Зарубежные сериалы Блудливая Калифорния / Californication / Сезон: 3, серии: 1-12 (Дэвид Фон Энкен, Барт Фрейндлих, Джон Дал) [2009 г., драма, комедия, WEBDLRip] MVO garry
46 | 4

0 | 1078

14

19.10.2012 21:37

Зарубежные сериалы Блудливая Калифорния / Californication / Сезон: 4, серии: 1-12 (Адам Бернштейн, Джон Дал, Дэвид Фон Энкен) [2011 г., драма, комедия, WEBDLRip] MVO garry
35 | 3

0 | 1086

10

19.10.2012 21:45

Зарубежные сериалы Блудливая Калифорния / Californication / Сезон: 6 / Серии: 1-12 (Том Капинос) [2013 г., драма, комедия, HDTVRip] MVO + Original garry
4 | 0

4 | 5022

9

20.10.2013 10:23



Последний раз редактировалось: garry (16.01.2013 22:03), всего редактировалось 2 раз(а)

garry Пол:Муж

17-Дек-2012 00:36

добавлены 10, 11 и 12 серии - теперь сезон полный.

Яндекс.Метрика powered by Sphinx


В Н И М А Н И Е
Сайт не распространяет и не хранит электронные версии произведений, а лишь бесплатно и без коммерческой выгоды (не требуя взамен платы,
SMS и т.д.) предоставляет доступ к создаваемому пользователями каталогу ссылок на торрент-файлы, которые содержат только списки хеш-сумм.
Убедительная просьба с жалобами обращаться напрямую к пользователю, разместившему торрент файл.

Вверх