Loading...
Error

Блудливая Калифорния / Californication / Сезон: 2, серии: 1-12 (Дэвид Духовны, Дэвид Фон Энкен, Майкл Леманн) [2008 г., драма, комедия, WEBDLRip] MVO

Статистика раздачи
Размер:  3,52 GB   |    Зарегистрирован:  4 года 1 месяц   |    Скачан:  19 раз

Полного источника не было: 1 час 54 минуты

Сидов:  0  |  0 KB/s  ]   Личеров:  0  |  0 KB/s  ]

* - сиды/пиры с внешних источников

   
 
Автор Сообщение

garry Пол:Муж

19-Окт-2012 21:29

Блудливая Калифорния / Californication / Сезон: 2, серии: 1-12


Год выпуска: 2008
Жанр: драма, комедия
Страна: США
Режиссер: Дэвид Духовны, Дэвид Фон Энкен, Майкл Леманн
В ролях: Дэвид Духовны, Наташа МакЭлхоун, Мадлен Мартин, Эван Хэндлер, Памела Адлон, Мадлен Зима, Стивен Тоболовски, Каллум Кит Ренни, Рэйчел Майнер, Джейсон Бех
Сюжет фильма:
Известный писатель Хэнк Муди переживает творческий и личностный кризис. За пять лет он не написал ни строчки, лишился женщины, которую любил, и окончательно погряз в пороках: марихуане, алкоголе и связях-однодневках. Но он не теряет надежды вновь обрести потерянную семью и вернуться к творчеству.

Качество видео: WEBDLRip

Продолжительность: ~00:30:00 x 12
Формат: avi
Видео: XviD, 624x352, 1207 kbps
Аудио #1: русский, многоголосый закадровый [профессиональный, Novafilm], MP3 2.0, 128 kbps
Аудио #2: английский, оригинал, MP3 2.0, 128 kbps

Код:

General
Complete name                    : D:\Downloads\Torrents\Californication.s02.WEB-DLRip.Rus.Eng.NovaFilm\Californication.s02e01.WEB-DLRip.Rus.Eng.NovaFilm.avi
Format                           : AVI
Format/Info                      : Audio Video Interleave
File size                        : 300 MiB
Duration                         : 28mn 28s
Overall bit rate                 : 1 475 Kbps
Writing application              : VirtualDubMod 1.5.10.2 (build 2540/release)
Writing library                  : VirtualDubMod build 2540/release

Video
ID                               : 0
Format                           : MPEG-4 Visual
Format profile                   : Streaming Video@L1
Format settings, BVOP            : Yes
Format settings, QPel            : No
Format settings, GMC             : No warppoints
Format settings, Matrix          : Custom
Codec ID                         : XVID
Codec ID/Hint                    : XviD
Duration                         : 28mn 28s
Bit rate                         : 1 208 Kbps
Width                            : 624 pixels
Height                           : 352 pixels
Display aspect ratio             : 16/9
Frame rate                       : 23.976 fps
Resolution                       : 24 bits
Colorimetry                      : 4:2:0
Scan type                        : Progressive
Bits/(Pixel*Frame)               : 0.229
Stream size                      : 246 MiB (82%)
Writing library                  : XviD 73

Audio #1
ID                               : 1
Format                           : MPEG Audio
Format version                   : Version 1
Format profile                   : Layer 3
Codec ID                         : 55
Codec ID/Hint                    : MP3
Duration                         : 27mn 51s
Bit rate mode                    : Constant
Bit rate                         : 128 Kbps
Channel(s)                       : 2 channels
Sampling rate                    : 48.0 KHz
Resolution                       : 16 bits
Stream size                      : 25.5 MiB (8%)
Alignment                        : Aligned on interleaves
Interleave, duration             : 43 ms (1.02 video frame)
Interleave, preload duration     : 504 ms
Writing library                  : LAME3.99r
Encoding settings                : -m j -V 4 -q 2 -lowpass 17 -b 128

Audio #2
ID                               : 2
Format                           : MPEG Audio
Format version                   : Version 1
Format profile                   : Layer 3
Codec ID                         : 55
Codec ID/Hint                    : MP3
Duration                         : 28mn 28s
Bit rate mode                    : Constant
Bit rate                         : 128 Kbps
Channel(s)                       : 2 channels
Sampling rate                    : 48.0 KHz
Resolution                       : 16 bits
Stream size                      : 26.1 MiB (9%)
Alignment                        : Aligned on interleaves
Interleave, duration             : 42 ms (1.00 video frame)
Interleave, preload duration     : 504 ms
Writing library                  : LAME3.99r
Encoding settings                : -m j -V 4 -q 2 -lowpass 17 -b 128

Семпл: http://multi-up.com/762100

picpicpic
Для увеличения картинки щелкните мышкой по превью

Этот торрент недоступен для скачивания без регистрации, однако доступен по публичной magnet-ссылке (источники с публичных трекеров). Перед использованием ссылки прочтите, пожалуйста Пользовательское соглашение, а также как можно дольше оставайтесь на раздаче! Для того, чтобы скачать сам торрент-файл (который видит больше источников), а также для того, чтобы поблагодарить релизера, вам необходимо зарегистрироваться. Если регистрироваться лень - вы можете также попробовать скачать релиз по нашим партнерским ссылкам ниже.

[underverse.su].t20670.torrent
Трекер: Зарегистрирован   [ 19.10.2012 21:29 ]  

Статус: проверено (by garry at 19.10.2012 21:29)
Поблагодарили: пока никто не поблагодарил...
Тип торрента: публичный - доступные источники с открытых трекеров: 
Размер: 3,52 GB (занимает 0,8 DVDR, для записи нужно 1 болванка DVDR/RW)
 
 
Похожие темы
Форум Тема Автор Торрент Отв. Посл. сооб.
Зарубежные сериалы Блудливая Калифорния / Californication / Сезон: 1, серии: 1-12 (Дэвид Фон Энкен, Стивен Хопкинс, Кен Уиттингэм) [2007 г., драма, комедия, WEBDLRip] VO garry
2 | 1

0 | 1060

20

19.10.2012 21:18

Зарубежные сериалы Блудливая Калифорния / Californication / Сезон: 3, серии: 1-12 (Дэвид Фон Энкен, Барт Фрейндлих, Джон Дал) [2009 г., драма, комедия, WEBDLRip] MVO garry
104 | 5

0 | 1088

15

19.10.2012 21:37

Зарубежные сериалы Блудливая Калифорния / Californication / Сезон: 4, серии: 1-12 (Адам Бернштейн, Джон Дал, Дэвид Фон Энкен) [2011 г., драма, комедия, WEBDLRip] MVO garry
63 | 3

0 | 1097

10

19.10.2012 21:45

Зарубежные сериалы Блудливая Калифорния / Californication / Сезон: 5, серии: 1-12 (Барт Фрейндлих, Адам Бернштейн, Джон Дал) [2012 г., драма, комедия, HDTVRip/WEBDLRip] MVO garry
43 | 6

1 | 1627

10

17.12.2012 00:36

Зарубежные сериалы Блудливая Калифорния / Californication / Сезон: 6 / Серии: 1-12 (Том Капинос) [2013 г., драма, комедия, HDTVRip] MVO + Original garry
4 | 0

4 | 5023

9

20.10.2013 10:23


Яндекс.Метрика powered by Sphinx


В Н И М А Н И Е
Сайт не распространяет и не хранит электронные версии произведений, а лишь бесплатно и без коммерческой выгоды (не требуя взамен платы,
SMS и т.д.) предоставляет доступ к создаваемому пользователями каталогу ссылок на торрент-файлы, которые содержат только списки хеш-сумм.
Убедительная просьба с жалобами обращаться напрямую к пользователю, разместившему торрент файл.

Вверх