Loading...
Error

Ходячие мертвецы / The Walking Dead / Сезон: 3, серии: 1-16 (Эрнест Р. Дикерсон, Билл Джирхарт, Гай Ферленд) [2012-13 г., ужасы, триллер, драма, WEBDLRip] Fox

Страницы:  1, 2  След.   

Статистика раздачи
Размер:  8,59 GB   |    Зарегистрирован:  3 года 2 месяца   |    Скачан:  19 раз

Полного источника не было: 9 дней

Сидов:  0  |  0 KB/s  ]   Личеров:  0  |  0 KB/s  ]

* - сиды/пиры с внешних источников

   
 
Автор Сообщение

garry Пол:Муж

17-Окт-2012 13:53

Ходячие мертвецы


Год выпуска: 2012-13
Жанр: ужасы, триллер, драма
Страна: США
Режиссер: Эрнест Р. Дикерсон, Билл Джирхарт, Гай Ферленд
В ролях: Эндрю Линкольн, Сара Уэйн Кэллис, Лори Холден, Стивен Юн, Чендлер Риггз, Норман Ридус, Айрон Э. Синглтон, Мелисса Сюзанн МакБрайд, Лорен Коэн, Джон Бернтал
Сюжет фильма:
Сериал рассказывает историю жизни семьи шерифа после того, как «зомби» — эпидемия апокалипсических масштабов захлестнула земной шар. Шериф Рик Граймс путешествует со своей семьей и небольшой группой выживших в поисках безопасного места для жизни. Но постоянный страх смерти каждый день приносит тяжелые потери, заставляя героев почувствовать глубины человеческой жестокости. Рик пытается спасти свою семью, и открывает для себя, что всепоглощающий страх тех, кто выжил, может быть опаснее бессмысленных мертвецов, бродящих по земле.

Качество видео: WEBDLRip

Продолжительность: ~00:43:00 x 16
Формат: avi
Видео: XviD, 720x400, 1522 kbps
Аудио #1: русский, многоголосый закадровый [профессиональный, канал Fox], MP3 2.0, 128 kbps
Аудио #2: английский, оригинал, MP3 2.0, 117 kbps

Код:

General
Complete name                    : D:\Video\Serials\Walking Dead S3 FoxCrime\The.Walking.Dead.s03e01.WEBDLRip.avi
Format                           : AVI
Format/Info                      : Audio Video Interleave
File size                        : 550 MiB
Duration                         : 43mn 5s
Overall bit rate                 : 1 785 Kbps
Writing application              : VirtualDubMod 1.5.10.2 (build 2540/release)
Writing library                  : VirtualDubMod build 2540/release

Video
ID                               : 0
Format                           : MPEG-4 Visual
Format profile                   : Streaming Video@L1
Format settings, BVOP            : Yes
Format settings, QPel            : No
Format settings, GMC             : No warppoints
Format settings, Matrix          : Default (MPEG)
Codec ID                         : XVID
Codec ID/Hint                    : XviD
Duration                         : 43mn 5s
Bit rate                         : 1 522 Kbps
Width                            : 720 pixels
Height                           : 400 pixels
Display aspect ratio             : 16/9
Frame rate                       : 23.976 fps
Resolution                       : 24 bits
Colorimetry                      : 4:2:0
Scan type                        : Progressive
Bits/(Pixel*Frame)               : 0.220
Stream size                      : 469 MiB (85%)
Writing library                  : XviD 64

Audio #1
ID                               : 1
Format                           : MPEG Audio
Format version                   : Version 1
Format profile                   : Layer 3
Codec ID                         : 55
Codec ID/Hint                    : MP3
Duration                         : 43mn 5s
Bit rate mode                    : Constant
Bit rate                         : 128 Kbps
Channel(s)                       : 2 channels
Sampling rate                    : 48.0 KHz
Resolution                       : 16 bits
Stream size                      : 39.5 MiB (7%)
Alignment                        : Aligned on interleaves
Interleave, duration             : 42 ms (1.00 video frame)
Interleave, preload duration     : 504 ms

Audio #2
ID                               : 2
Format                           : MPEG Audio
Format version                   : Version 1
Format profile                   : Layer 3
Codec ID                         : 55
Codec ID/Hint                    : MP3
Duration                         : 43mn 5s
Bit rate mode                    : Variable
Bit rate                         : 117 Kbps
Minimum bit rate                 : 32.0 Kbps
Channel(s)                       : 2 channels
Sampling rate                    : 48.0 KHz
Resolution                       : 16 bits
Stream size                      : 36.1 MiB (7%)
Alignment                        : Aligned on interleaves
Interleave, duration             : 24 ms (0.58 video frame)
Interleave, preload duration     : 635 ms
Writing library                  : LAME3.99r
Encoding settings                : -m j -V 2 -q 0 -lowpass 18.5 --vbr-new -b 32

Семпл: http://multi-up.com/776623

Релиз группы:

picpicpic
Для увеличения картинки щелкните мышкой по превью

Пожалуйста, не уходите с раздачи :beer:

Этот торрент недоступен для скачивания без регистрации, однако доступен по публичной magnet-ссылке (источники с публичных трекеров). Перед использованием ссылки прочтите, пожалуйста Пользовательское соглашение, а также как можно дольше оставайтесь на раздаче! Для того, чтобы скачать сам торрент-файл (который видит больше источников), а также для того, чтобы поблагодарить релизера, вам необходимо зарегистрироваться. Если регистрироваться лень - вы можете также попробовать скачать релиз по нашим партнерским ссылкам ниже.

[underverse.su].t20610.torrent
Трекер: Зарегистрирован   [ 03.10.2013 14:10 ]  

Статус: проверено (by Чертёнок at 03.10.2013 14:25)
Поблагодарили: 17 человек
Тип торрента: публичный - доступные источники с открытых трекеров: 
Размер: 8,59 GB (занимает 1,96 DVDR, для записи нужно 2 болванки DVDR/RW)
 
 
Похожие темы
Форум Тема Автор Торрент Отв. Посл. сооб.
T Зарубежное кино [DVDRip, Low-Res HDRip, и т.д.] Ходячие мертвецы на диком Западе / Walking dead in the West / Cowboy Zombies (Пол Уинтерс) [2016 г., ужасы, DVDRip] MVO makkol
43 | 2

0 | 175

5

21.10.2016 22:19

Зарубежные сериалы Ходячие мертвецы / The Walking Dead / Сезон: 1, серии: 1-6 (Фрэнк Дарабонт, Эрнест Р. Дикерсон, Гай Ферленд) [2010 г., ужасы, драма, BDRip] MVO maddd
0 | 1

6 | 1756

35

11.01.2013 17:35

Зарубежные сериалы Ходячие мертвецы / The Walking Dead / Сезон 2 / 1-13 cерия (Эрнест Р. Дикерсон, Гвинет Хордер-Пэйтон) [2011 (2 сезон) г., триллер, WEB-DLRip] maddd
0 | 0

23 | 4164

47

09.12.2012 07:37

Зарубежные сериалы Ходячие мертвецы / The Walking Dead / Сезон 1-3 / Серии 1-35 (35) (Эрнест Р. Дикерсон, Гай Ферленд, Гвинет Хордер-Пэйтон) [2010-2013 г., Мистический триллер, ужасы, зомби, WEBDLRip-AVC] MVO Чертёнок
1 | 3

11 | 1425

33

08.10.2013 18:52

T Зарубежные сериалы Ходячие мертвецы / The Walking Dead / Сезон: 4 / Серии: 1-12 (Эрнест Р. Дикерсон, Гай Ферленд, Гвинет Хордер-Пэйтон) [2013 г., ужасы, триллер, драма, WEB-DLRip] MVO + Original garry
0 | 0

4 | 12403

11

12.03.2014 15:43

T Зарубежные сериалы Ходячие мертвецы / The Walking Dead (5 сезон: 1-5 серии из 16) ( Эрнест Р. Дикерсон, Гай Ферленд, Гвинет Хордер-Пэйтон) [2014 г., ужасы, триллер, драма, WEB-DL 720p] MVO viktor.r-79
1 | 0

2 | 1609

7

11.11.2014 04:22

Зарубежные сериалы Ходячие мертвецы / The Walking Dead / Сезон 5 (1-16 серии из 16) (Грег Никотеро, Эрнест Р. Дикерсон, Гай Ферленд) [2014 г., ужасы, драма, WEB-DLRip] MVO older
28 | 5

0 | 1031

8

02.09.2015 15:51

Зарубежные сериалы Ходячие мертвецы / The Walking Dead / Сезон 6 (1-16 серии из 16) (Грег Никотеро, Эрнест Р. Дикерсон, Гай Ферленд) [2015 г., ужасы, драма, WEB-DLRip] MVO (FoX) + Original older
45 | 23

8 | 2395

5

05.05.2016 23:19

Комиксы Ходячие мертвецы / The Walking Dead [001-140] [2003-2015 г., зомби-апокалипсис, хоррор, драма, CBZ, FB2] RUS Паукан
3 | 0

0 | 624

7

05.05.2015 14:25

Зарубежные сериалы [BD / Remux / BDRip / WEB-DL / HDTV 1080/720р] Ходячие мертвецы / The Walking Dead / Сезон 3 / Серии 1-16 (16) ( Эрнест Р. Дикерсон, Гай Ферленд, Гвинет Хордер-Пэйтон) [2012 г., Ужасы, триллер, драма, WEBDLRip 720p] MVO + Original Чертёнок
10 | 4

2 | 1950

4

08.10.2013 17:42



Последний раз редактировалось: garry (16.10.2013 20:02), всего редактировалось 30 раз(а)

garry Пол:Муж

23-Окт-2012 18:47

добавлена 2 серия

theatre Пол:Муж

23-Окт-2012 20:55

gari
крутой сериал, спасибо! :good:

garry Пол:Муж

12-Ноя-2012 21:54

нормальная 5 серия будет завтра вечером

reb2009 

14-Ноя-2012 18:26

когда же будет 5 серия ?(

garry Пол:Муж

14-Ноя-2012 19:08

reb2009
5 уже есть, но с дефектом

Цитата:

Внимание, косяки со звуком, примерно на 12 минуте, были при показе и повторе, так что накосячили на самом фоксе, за проперы можно не писать!
в процессе...ждем.

reb2009 

14-Ноя-2012 19:27

так а можно скачать эту серию пусть даже с дефектом?

garry Пол:Муж

14-Ноя-2012 19:53

так она только и есть с дефектом. просто не могу нигде найти) вот и ждите пока что..

reb2009 

14-Ноя-2012 19:59

ждемс))) но мы согласны и на дефект! даешь 5 серию!!!)))

garry Пол:Муж

14-Ноя-2012 20:23

reb2009
добавлена Валькин Дед 5 серия

reb2009 

14-Ноя-2012 20:28

огромное ЧЕЛОВЕЧЕСКОЕ спасибо)))))

artem4k Пол:Муж

20-Ноя-2012 11:52

класс

garry Пол:Муж

20-Ноя-2012 18:57

добавлена 6 серия

reb2009 

20-Ноя-2012 19:12

спасибо за оперативность!!!))) каждый вторник ждем с нетерпением))

rss 

27-Ноя-2012 12:56

классный сериал. но, предпочитаю в переводе лоста.

Яндекс.Метрика powered by Sphinx


В Н И М А Н И Е
Сайт не распространяет и не хранит электронные версии произведений, а лишь бесплатно и без коммерческой выгоды (не требуя взамен платы,
SMS и т.д.) предоставляет доступ к создаваемому пользователями каталогу ссылок на торрент-файлы, которые содержат только списки хеш-сумм.
Убедительная просьба с жалобами обращаться напрямую к пользователю, разместившему торрент файл.

Вверх