Loading...
Error

Пятницкий. Глава вторая / Серии: 1-32(32) (Илья Куликов) [2012, Детектив, Драма, Криминал, SATRip]

Страницы:  1, 2  След.   

Статистика раздачи
Размер:  17,83 GB   |    Зарегистрирован:  4 года   |    Скачан:  5 раз

Полного источника не было: 9 месяцев

Сидов:  0  |  0 KB/s  ]   Личеров:  0  |  0 KB/s  ]

* - сиды/пиры с внешних источников

   
 
Автор Сообщение

nemos Пол:Муж

16-Окт-2012 08:08



Год выпуска: 2012
Жанр: Детектив, Драма, Криминал
Страна: Россия
Режиссер: Илья Куликов
В ролях: Виктория Тарасова, Александр Бобров, Сергей Гурьев, Антон Батырев, Георгий Тополага, Виктория Герасимова, Дмитрий Мазуров, Андрей Сорока, Анна Липко, Антон Афанасьев и др.
Сюжет фильма:
У следователей «Пятницкого» дел невпроворот, и глухарей меньше не становится. Без проверенных бойцов не обойтись. Многие уже вернулись, а остальные… подтянутся!

На НТВ — долгожданное продолжение истории полковника Ирины Зиминой и ее подчиненных. Во второй главе полицейской драмы вызов стражам порядка и обществу вновь бросает масштабная организация палачей, карающих преступников, которым удалось избежать наказания. Мстителей несколько десятков, и среди них точно есть сотрудники Отдела…

Когда каждый может оказаться предателем, доверие — непозволительная роскошь. Герои столкнутся с жестокостью и обманом, кто-то изменит своим идеалам и перейдет черту закона, а кто-то будет сражаться до самого конца. Какой выбор сделает Ирина Зимина? По силам ли ей переиграть «мстителей в погонах»? И что делать, когда буква закона бессильна, а самосуд видится единственным выходом?


Качество видео: SatRip

Продолжительность: 00:45:01серия
Формат: AVI
Видео: XviD, 720 x 400, 1 646kbps
Аудио: русский, MP3 2.0, 128 kbps

Код:

E:\ÑÊÀ×ÊÈ\Ñ underverse\Ïÿòíèöêèé. Ãëàâà âòîðàÿ (2012)\Ïÿòíèöêèé. Ãëàâà âòîðàÿ. Ñåðèÿ ¹32 (2012).avi
   General
      Complete name : E:\ÑÊÀ×ÊÈ\Ñ underverse\Ïÿòíèöêèé. Ãëàâà âòîðàÿ (2012)\Ïÿòíèöêèé. Ãëàâà âòîðàÿ. Ñåðèÿ ¹32 (2012).avi
      Format : AVI
      Format/Info : Audio Video Interleave
      File size : 574 MiB
      Duration : 45mn 1s
      Overall bit rate : 1 784 Kbps
      Writing application : VirtualDubModRus 1.5.10.2 (build 2542/release)
      Writing library : VirtualDubMod build 2542/release
   Video #0
      ID : 0
      Format : MPEG-4 Visual
      Format profile : Advanced Simple@L5
      Format settings, BVOP : 2
      Format settings, QPel : No
      Format settings, GMC : No warppoints
      Format settings, Matrix : Default (H.263)
      Muxing mode : Packed bitstream
      Codec ID : XVID
      Codec ID/Hint : XviD
      Duration : 45mn 1s
      Bit rate : 1 646 Kbps
      Width : 720 pixels
      Height : 400 pixels
      Display aspect ratio : 16:9
      Frame rate : 25.000 fps
      Color space : YUV
      Chroma subsampling : 4:2:0
      Bit depth : 8 bits
      Scan type : Progressive
      Compression mode : Lossy
      Bits/(Pixel*Frame) : 0.229
      Stream size : 530 MiB (92%)
      Writing library : XviD 64
   Audio #1
      ID : 1
      Format : MPEG Audio
      Format version : Version 1
      Format profile : Layer 3
      Mode : Joint stereo
      Mode extension : MS Stereo
      Codec ID : 55
      Codec ID/Hint : MP3
      Duration : 45mn 1s
      Bit rate mode : Constant
      Bit rate : 128 Kbps
      Channel(s) : 2 channels
      Sampling rate : 48.0 KHz
      Compression mode : Lossy
      Delay relative to video : 8ms
      Stream size : 41.2 MiB (7%)
      Alignment : Split accross interleaves
      Interleave, duration : 40 ms (1.00 video frame)
      Interleave, preload duration : 500 ms
Семпл: http://multi-up.com/776125

picpicpicpicpicpicpicpicpicpicpicpic
Для увеличения картинки щелкните мышкой по превью
Внимание! Раздача ведётся путём добавления новых серий; при каждом добавлении создётся новый торрент. Чтобы начать докачку новой серии, пользователям необходимо сделать следующее:
(1) остановить скачивание,
(2) удалить старый торрент-файл у себя из клиента (старые серии удалять не надо),
(3) скачать новый торрент-файл из раздачи и запустить его у себя в клиенте вместо старого, при этом указать клиенту путь в старую папку куда и должно происходить скачивание новых серий.
Ваш клиент при этом должен произвести хеширование (проверку) старой папки (если не производит сам - помогите ему сделать это), и будет докачивать только те серии которых у вас ещё нет. Старые серии при этом не удаляются, а продолжают раздаваться!
Eсли вы уже посмотрели и удалили старые серии, то предотвратить повторную закачку старых серий можно, сняв галочки в соответсвующих местах при запуске нового торрента. По возможности, желательно не удалять старые серии как можно дольше чтобы релизёр не столько продолжал раздавать старые серии, а смог сконцентрироваться на новых.

Этот торрент недоступен для скачивания без регистрации, однако доступен по публичной magnet-ссылке (источники с публичных трекеров). Перед использованием ссылки прочтите, пожалуйста Пользовательское соглашение, а также как можно дольше оставайтесь на раздаче! Для того, чтобы скачать сам торрент-файл (который видит больше источников), а также для того, чтобы поблагодарить релизера, вам необходимо зарегистрироваться. Если регистрироваться лень - вы можете также попробовать скачать релиз по нашим партнерским ссылкам ниже.

[underverse.su].t21181.torrent
Трекер: Зарегистрирован   [ 09.11.2012 17:07 ]  

Статус: проверено (by garry at 09.11.2012 19:47)
Поблагодарили: 2 человека
Тип торрента: публичный - доступные источники с открытых трекеров: 
Размер: 17,83 GB (занимает 4,07 DVDR, для записи нужно 5 болванок DVDR/RW)
 
 
Похожие темы
Форум Тема Автор Торрент Отв. Посл. сооб.
xUSSR сериалы Пятницкий. Глава третья / Серии 1-30 (30) (Григорий Фёдоров, Мичислав Юзовский) [2013 г., Детектив, криминал, драма, SatRip] nemos
2 | 0

1 | 5305

13

11.11.2013 16:20

xUSSR сериалы Пятницкий. Глава четвертая (1-32 серия из 32) (Григорий Федоров, Олег Галин) [2014 г., драма, криминал, SatRip] nemos
4 | 2

2 | 1749

12

18.11.2014 08:53



Последний раз редактировалось: nemos (06.11.2014 12:40), всего редактировалось 29 раз(а)

mboldin Пол:Муж

16-Окт-2012 13:04

Прикольно, я один качаю, и раздает только один.... Если бы название папки и файлов не менять, посидировали бы вдвоем....

nemos Пол:Муж

16-Окт-2012 15:23

Обновлена

nemos Пол:Муж

17-Окт-2012 14:12

Обновлен

mboldin Пол:Муж

17-Окт-2012 16:24

Быстрее скачалась, чем с рутрекера!!!!!!!!!!!!! СПАСИБО!!!!!!!!!!!!!!!!!!!!!!!!!!!

nemos Пол:Муж

18-Окт-2012 15:26

Обновлена

nemos Пол:Муж

19-Окт-2012 14:29

Обновлена,

nemos Пол:Муж

22-Окт-2012 14:50

Обновлена

nemos Пол:Муж

23-Окт-2012 13:49

Обновлена,

nemos Пол:Муж

24-Окт-2012 13:44

Добавлена 15-я серия,Обновите торрент файл!!!

nemos Пол:Муж

25-Окт-2012 14:04

Добавлена 16-я серия,Обновите торрент файл!

nemos Пол:Муж

26-Окт-2012 13:10

Добавлена 17-я серия

nemos Пол:Муж

29-Окт-2012 13:56

Добавлены 18-19-е серии

nemos Пол:Муж

30-Окт-2012 14:22

Добавлены 20-21-е серии

nemos Пол:Муж

31-Окт-2012 13:40

Добавлены 22-23-и серии

Яндекс.Метрика powered by Sphinx


В Н И М А Н И Е
Сайт не распространяет и не хранит электронные версии произведений, а лишь бесплатно и без коммерческой выгоды (не требуя взамен платы,
SMS и т.д.) предоставляет доступ к создаваемому пользователями каталогу ссылок на торрент-файлы, которые содержат только списки хеш-сумм.
Убедительная просьба с жалобами обращаться напрямую к пользователю, разместившему торрент файл.

Вверх