Loading...
Error

Тихий океан (Тихоокеанский фронт) / The Pacific / Сезон: 1 / Серии: 1-10 (Джереми Подесва, Тимоти Ван Паттен, Дэвид Наттер) [2010 г., боевик, драма, приключения, военный, история, BDRip] 2xDVO + 3xMVO + Original

Статистика раздачи
Размер:  18,54 GB   |    Зарегистрирован:  4 года 1 месяц   |    Скачан:  11 раз

Полного источника не было: 10 месяцев

Сидов:  0  |  0 KB/s  ]   Личеров:  0  |  0 KB/s  ]

* - сиды/пиры с внешних источников

   
 
Автор Сообщение

garry Пол:Муж

15-Окт-2012 21:24

Тихий океан (Тихоокеанский фронт) / The Pacific


Год выпуска: 2010
Жанр: боевик, драма, приключения, военный, история
Страна: США
Режиссер: Джереми Подесва, Тимоти Ван Паттен, Дэвид Наттер
В ролях: Джеймс Бэдж Дэйл, Джозеф Маццелло, Джон Седа, Бен Чишолм, Крис Миллиган, Эштон Холмс, Байрон Дж. Брочманн, Джош Хелман, Рами Малек, Мартин МакКанн
Сюжет фильма:
10 минисерий от создателей сериала «Братья по оружию» рассказывают историю трех морских пехотинцев, участвовавших в сражениях с японцами на Тихом океане во время Второй мировой войны.

Качество видео: BDRip [BD-Remux HDCLUB]

Продолжительность: ~01:00:00 x 10
Формат: AVI
Видео: XviD, 720x400, ~1950 kbps
Аудио #1: русский, двухголосый закадровый [профессиональный, П.Гланц и И.Королева], AC3 5.1, 448 kbps присутствует ненормативная лексика
Аудио #2: русский, двухголосый закадровый [профессиональный, Кубик в кубе], AC3 5.1, 448 kbps (отдельно) присутствует ненормативная лексика
Аудио #3: русский, многоголосый закадровый [профессиональный, LostFilm], AC3 5.1, 448 kbps (отдельно)
Аудио #4: русский, многоголосый закадровый [профессиональный, Петербург "5-ый канал"], AC3 5.1, 448 kbps (отдельно)
Аудио #5: русский, многоголосый закадровый [профессиональный, ТВЧ 1, с телеканала Кинопоказ-HD], AC3 5.1, 448 kbps (отдельно)
Аудио #6: английский, оригинал, AC3 5.1, 448 kbps (отдельно)

Код:

General
Complete name                            : D:\Downloads\Torrents\The.Pacific.S01E01-10.2010.DVO.GiK.BDRip.XviD.AC3.HQRips\The.Pacific.S01E01.2010.DVO.GiK.BDRip.XviD.AC3.HQRips.avi
Format                                   : AVI
Format/Info                              : Audio Video Interleave
File size                                : 978 MiB
Duration                                 : 54mn 57s
Overall bit rate                         : 2 488 Kbps
Movie name                               : The Pacific (2010) [Episode 1: Guadalcanal/Leckie]
Director                                 : danis92 [Рип с BD-Remux]
Writing application                      : VirtualDubMod 1.5.10.2 (build 2542/release)
Copyright                                : http://hqrips.do.am/
Comment                                  : R.G. HQRips

Video
ID                                       : 0
Format                                   : MPEG-4 Visual
Format profile                           : Advanced Simple@L5
Format settings, BVOP                    : 2
Format settings, QPel                    : No
Format settings, GMC                     : No warppoints
Format settings, Matrix                  : Custom
Codec ID                                 : XVID
Codec ID/Hint                            : XviD
Duration                                 : 54mn 57s
Bit rate                                 : 2 031 Kbps
Width                                    : 720 pixels
Height                                   : 400 pixels
Display aspect ratio                     : 16:9
Frame rate                               : 23.976 fps
Color space                              : YUV
Chroma subsampling                       : 4:2:0
Bit depth                                : 8 bits
Scan type                                : Progressive
Compression mode                         : Lossy
Bits/(Pixel*Frame)                       : 0.294
Stream size                              : 798 MiB (82%)
Writing library                          : XviD 63

Audio
ID                                       : 1
Format                                   : AC-3
Format/Info                              : Audio Coding 3
Mode extension                           : CM (complete main)
Format settings, Endianness              : Big
Codec ID                                 : 2000
Duration                                 : 54mn 57s
Bit rate mode                            : Constant
Bit rate                                 : 448 Kbps
Channel(s)                               : 6 channels
Channel positions                        : Front: L C R, Side: L R, LFE
Sampling rate                            : 48.0 KHz
Bit depth                                : 16 bits
Compression mode                         : Lossy
Stream size                              : 176 MiB (18%)
Alignment                                : Split accross interleaves
Interleave, duration                     : 42 ms (1.00 video frame)
Interleave, preload duration             : 500 ms
Семпл: http://multi-up.com/776033

Релиз группы:

ВНИМАНИЕ! В начале каждой серии сохранены Исторические хроники.


picpicpic
Для увеличения картинки щелкните мышкой по превью

Этот торрент недоступен для скачивания без регистрации, однако доступен по публичной magnet-ссылке (источники с публичных трекеров). Перед использованием ссылки прочтите, пожалуйста Пользовательское соглашение, а также как можно дольше оставайтесь на раздаче! Для того, чтобы скачать сам торрент-файл (который видит больше источников), а также для того, чтобы поблагодарить релизера, вам необходимо зарегистрироваться. Если регистрироваться лень - вы можете также попробовать скачать релиз по нашим партнерским ссылкам ниже.

[underverse.su].t20592.torrent
Трекер: Зарегистрирован   [ 15.10.2012 21:24 ]  

Статус: проверено (by garry at 15.10.2012 23:04)
Поблагодарили: пока никто не поблагодарил...
Тип торрента: публичный - доступные источники с открытых трекеров: 
Размер: 18,54 GB (занимает 4,24 DVDR, для записи нужно 5 болванок DVDR/RW)
 
 
Похожие темы
Форум Тема Автор Торрент Отв. Посл. сооб.
Зарубежные сериалы Тихий Океан / Тихоокеанский фронт / The Pacific [серии 01 - 10 из 10] (Джереми Подесва, Карл Франклин, Дэвид Наттер) [2010 г., военный, драма, HDRip] MVO (LostFilm) 90ytr90
28 | 4

0 | 1242

18

25.02.2015 17:21


Яндекс.Метрика powered by Sphinx


В Н И М А Н И Е
Сайт не распространяет и не хранит электронные версии произведений, а лишь бесплатно и без коммерческой выгоды (не требуя взамен платы,
SMS и т.д.) предоставляет доступ к создаваемому пользователями каталогу ссылок на торрент-файлы, которые содержат только списки хеш-сумм.
Убедительная просьба с жалобами обращаться напрямую к пользователю, разместившему торрент файл.

Вверх