Loading...
Error

Человек из ниоткуда / Ajeossi / The Man From Nowhere (Ли Чжон Бом) [2010 г., боевик, триллер, криминал, HDRip] AVO

Статистика раздачи
Размер:  1,46 GB   |    Зарегистрирован:  4 года 1 месяц   |    Скачан:  23 раза

Полного источника не было: 1 месяц 20 дней

Сидов:  0  |  0 KB/s  ]   Личеров:  0  |  0 KB/s  ]

* - сиды/пиры с внешних источников

   
 
Автор Сообщение

garry Пол:Муж

15-Окт-2012 17:37

Человек из ниоткуда / Ajeossi / The Man From Nowhere


Год выпуска: 2010
Жанр: боевик, триллер, криминал
Страна: Корея Южная
Режиссер: Ли Чжон Бом
В ролях: Вон Бин, Сае-Рон Ким, Тхэ-Хун Ким, Хи-Вон Ким, Сон-О Ким, Танаёнг Вонгтракул, Со-Хи Хонг, Хё-Со Ким
Сюжет фильма:
Чха Тхэ Сик — скромный владелец ломбарда. Девочка Чон Соме его соседка и дочь матери-одиночки, которая работает в баре танцовщицей и не столько увлекается воспитанием ребенка, сколько ищет острых ощущений на свою и без того повидавшую виды, неудавшуюся жизнь. И вот однажды мать Соме вместе со своим парнем решает обокрасть наркокурьера, который регулярно появляется в заведении, где она выступает…

  • Мировая премьера: 5 августа 2010


Качество видео: HDRip

Продолжительность: 01:59:19
Формат: AVI
Видео: XviD, 720x304, 1299 kbps
Аудио: русский, одноголосый закадровый [авторский, Ю. Сербин], AC3 5.1, 448 kbps

Код:

General
Complete name                            : D:\Video\Movies\The Man From Nowhere.2010.HDRip.XviD.1400MB. rip by [ Assassin's Creed ].avi
Format                                   : AVI
Format/Info                              : Audio Video Interleave
File size                                : 1.46 GiB
Duration                                 : 1h 59mn
Overall bit rate                         : 1 757 Kbps
Writing application                      : VirtualDubMod 1.5.10.2 (build 2540/release)
Writing library                          : VirtualDubMod build 2540/release

Video
ID                                       : 0
Format                                   : MPEG-4 Visual
Format profile                           : Advanced Simple@L5
Format settings, BVOP                    : 1
Format settings, QPel                    : No
Format settings, GMC                     : No warppoints
Format settings, Matrix                  : Default (MPEG)
Codec ID                                 : XVID
Codec ID/Hint                            : XviD
Duration                                 : 1h 59mn
Bit rate                                 : 1 300 Kbps
Width                                    : 720 pixels
Height                                   : 304 pixels
Display aspect ratio                     : 2.35:1
Frame rate                               : 23.976 fps
Color space                              : YUV
Chroma subsampling                       : 4:2:0
Bit depth                                : 8 bits
Scan type                                : Progressive
Compression mode                         : Lossy
Bits/(Pixel*Frame)                       : 0.248
Stream size                              : 1.08 GiB (74%)
Writing library                          : XviD 1.2.1 (UTC 2008-12-04)

Audio
ID                                       : 1
Format                                   : AC-3
Format/Info                              : Audio Coding 3
Mode extension                           : CM (complete main)
Format settings, Endianness              : Big
Codec ID                                 : 2000
Duration                                 : 1h 59mn
Bit rate mode                            : Constant
Bit rate                                 : 448 Kbps
Channel(s)                               : 6 channels
Channel positions                        : Front: L C R, Side: L R, LFE
Sampling rate                            : 48.0 KHz
Bit depth                                : 16 bits
Compression mode                         : Lossy
Stream size                              : 382 MiB (25%)
Alignment                                : Aligned on interleaves
Interleave, duration                     : 42 ms (1.00 video frame)
Interleave, preload duration             : 512 ms
Семпл: http://multi-up.com/775860

Релиз группы:

picpicpic
Для увеличения картинки щелкните мышкой по превью

Этот торрент недоступен для скачивания без регистрации, однако доступен по публичной magnet-ссылке (источники с публичных трекеров). Перед использованием ссылки прочтите, пожалуйста Пользовательское соглашение, а также как можно дольше оставайтесь на раздаче! Для того, чтобы скачать сам торрент-файл (который видит больше источников), а также для того, чтобы поблагодарить релизера, вам необходимо зарегистрироваться. Если регистрироваться лень - вы можете также попробовать скачать релиз по нашим партнерским ссылкам ниже.

[underverse.su].t20586.torrent
Трекер: Зарегистрирован   [ 15.10.2012 17:37 ]  

Статус: проверено (by garry at 15.10.2012 17:39)
Поблагодарили: 1 человек
Тип торрента: публичный - доступные источники с открытых трекеров: 
Размер: 1,46 GB (занимает 0,33 DVDR, для записи нужно 1 болванка DVDR/RW)
 
 
Похожие темы
Форум Тема Автор Торрент Отв. Посл. сооб.
Зарубежное кино [DVDRip, Low-Res HDRip, и т.д.] Человек из ниоткуда / Ajeossi / The Man From Nowhere (Ли Чжон Бом) [2010 г., боевик, триллер, криминал, HDRip] MVO Паукан
14 | 1

0 | 1831

26

17.06.2013 07:07

Зарубежное кино [DVDRip, Low-Res HDRip, и т.д.] Человек из стали / Man of Steel (Зак Снайдер) [2013 г., фантастика, фэнтези, боевик, приключения, HDRip] Dub + Original 90ytr90
6 | 0

0 | 598

11

18.10.2013 16:54

Зарубежное кино [DVDRip, Low-Res HDRip, и т.д.] Человек из стали / Man of Steel (Зак Снайдер) [2013 г., фантастика, фэнтези, боевик, приключения, HDRip] Dub 90ytr90
20 | 0

0 | 1071

86

18.10.2013 17:10

Зарубежное кино [DVDRip, Low-Res HDRip, и т.д.] Человек из стали / Man of Steel (Зак Снайдер) [2013 г., фантастика, фэнтези, боевик, приключения, BDRip-AVC] Dub + Sub (Eng) 90ytr90
12 | 1

0 | 1669

19

18.10.2013 19:40

Зарубежное кино [DVDRip, Low-Res HDRip, и т.д.] Человек из стали / Man of Steel (Зак Снайдер) [2013 г., фантастика, фэнтези, боевик, приключения, ВDRip] Dub 90ytr90
2 | 0

0 | 655

39

19.10.2013 05:50

Зарубежное кино [DVDRip, Low-Res HDRip, и т.д.] Человек из Рино / Man from Reno (Дэйв Бойл) [2014 г., триллер, драма, криминал, детектив, WEB-DLRip] MVO makkol
1 | 0

0 | 863

18

26.03.2016 22:33

Наше кино [DVDRip, Low-Res HDRip, и т.д.] Человек из банки (Иван Кульнев) [2012 г., комедия, DVDRip] RG NewCinema
19 | 3

0 | 943

47

29.11.2012 12:45

Зарубежное кино HQ Человек из стали / Man of Steel (Зак Снайдер) [2013 г., фантастика, фэнтези, боевик, приключения, BDRip] Dub + Original HQ Underverse HQ Underverse
1 | 0

0 | 2330

82

20.10.2013 20:06

Зарубежное кино HQ Человек из ниоткуда / Ajeossi / The Man from Nowhere (Ли Чжон Бом / Lee Jeong Beom) [2010 г., боевик, триллер, криминал, BDRip] AVO HQ Underverse HQ Underverse
9 | 0

1 | 1494

59

14.07.2015 18:00

Зарубежное кино [DVD / HDDVD / BD / Remux] Человек из стали / Man of Steel (Зак Снайдер) [2013 г., фантастика, фэнтези, боевик, приключения, DVD-9] DuB [ Лицензия] Чертёнок
1 | 0

0 | 596

11

22.10.2013 10:46


Яндекс.Метрика powered by Sphinx


В Н И М А Н И Е
Сайт не распространяет и не хранит электронные версии произведений, а лишь бесплатно и без коммерческой выгоды (не требуя взамен платы,
SMS и т.д.) предоставляет доступ к создаваемому пользователями каталогу ссылок на торрент-файлы, которые содержат только списки хеш-сумм.
Убедительная просьба с жалобами обращаться напрямую к пользователю, разместившему торрент файл.

Вверх