Loading...
Error

Жизнь и судьба / Серии: 1-12(12) (Сергей Урсуляк) [2012, военный, драма, экранизация, SATRip]

Статистика раздачи
Размер:  5,5 GB   |    Зарегистрирован:  4 года 1 месяц   |    Скачан:  23 раза

Полного источника не было: 2 года

Сидов:  0  |  0 KB/s  ]   Личеров:  0  |  0 KB/s  ]

* - сиды/пиры с внешних источников

   
 
Автор Сообщение

nemos Пол:Муж

15-Окт-2012 08:56



Год выпуска: 2012
Жанр: Военный, драма, экранизация
Страна: Россия
Режиссер: Сергей Урсуляк
В ролях: Сергей Маковецкий, Анна Михалкова, Александр Никольский, Александр Балуев, Лика Нифонтова, Евгений Дятлов, Полина Агуреева, Софья Райзман, Виктор Яковлев, Дмитрий Родонов
Сюжет фильма:
Сюжет разворачивается в 1942—1943 годы, в период обороны Сталинграда. Еврей Виктор Штрум — талантливый физик-ядерщик, работающий в одном из институтов страны над созданием атомной бомбы. В это время близкие Штрума погибают в гитлеровских лагерях и застенках НКВД, на него самого начинаются гонения. Изобретателя может спасти только его научное детище, которым заинтересовался сам Сталин. Государству нужно такое мощное оружие, как атомная бомба. Ученому предстоит сделать выбор: остаться верным науке и работать на «вождя нации» или отказаться от своего призвания и быть уничтоженным.


Качество видео: SatRip

Продолжительность: 00:34:58 Серия
Формат: AVI
Видео: DivX, 704x368, 1 499 kbps
Аудио: русский, MP3 2.0, 128 kbps

Код:

E:\СКАЧКИ\С underverse\Жизнь и судьба\Zhiznj.i.sudjba.02of12.01.chastj.2012.SATRip.avi
   General
      Complete name : E:\СКАЧКИ\С underverse\Жизнь и судьба\Zhiznj.i.sudjba.02of12.01.chastj.2012.SATRip.avi
      Format : AVI
      Format/Info : Audio Video Interleave
      File size : 409 MiB
      Duration : 34mn 58s
      Overall bit rate : 1 637 Kbps
      Writing library : VirtualDub-MPEG2 build 24600/release
   Video #0
      ID : 0
      Format : MPEG-4 Visual
      Format profile : Simple@L3
      Format settings, BVOP : No
      Format settings, QPel : No
      Format settings, GMC : No warppoints
      Format settings, Matrix : Default (H.263)
      Codec ID : DX50
      Codec ID/Hint : DivX 5
      Duration : 34mn 58s
      Bit rate : 1 499 Kbps
      Width : 704 pixels
      Height : 368 pixels
      Display aspect ratio : 1.913
      Frame rate : 25.000 fps
      Color space : YUV
      Chroma subsampling : 4:2:0
      Bit depth : 8 bits
      Scan type : Progressive
      Compression mode : Lossy
      Bits/(Pixel*Frame) : 0.231
      Stream size : 375 MiB (92%)
      Writing library : XviD 1.2.1 (UTC 2008-12-04)
   Audio #1
      ID : 1
      Format : MPEG Audio
      Format version : Version 1
      Format profile : Layer 3
      Mode : Joint stereo
      Mode extension : MS Stereo
      Codec ID : 55
      Codec ID/Hint : MP3
      Duration : 34mn 58s
      Bit rate mode : Constant
      Bit rate : 128 Kbps
      Channel(s) : 2 channels
      Sampling rate : 48.0 KHz
      Compression mode : Lossy
      Delay relative to video : 8ms
      Stream size : 32.0 MiB (8%)
      Alignment : Split accross interleaves
      Interleave, duration : 40 ms (1.00 video frame)
      Interleave, preload duration : 500 ms
      Writing library : LAME3.98.2
Семпл: http://multi-up.com/775659

picpicpicpicpicpicpicpicpicpic
Для увеличения картинки щелкните мышкой по превью
Внимание! Раздача ведётся путём добавления новых серий; при каждом добавлении создётся новый торрент. Чтобы начать докачку новой серии, пользователям необходимо сделать следующее:
(1) остановить скачивание,
(2) удалить старый торрент-файл у себя из клиента (старые серии удалять не надо),
(3) скачать новый торрент-файл из раздачи и запустить его у себя в клиенте вместо старого, при этом указать клиенту путь в старую папку куда и должно происходить скачивание новых серий.
Ваш клиент при этом должен произвести хеширование (проверку) старой папки (если не производит сам - помогите ему сделать это), и будет докачивать только те серии которых у вас ещё нет. Старые серии при этом не удаляются, а продолжают раздаваться!
Eсли вы уже посмотрели и удалили старые серии, то предотвратить повторную закачку старых серий можно, сняв галочки в соответсвующих местах при запуске нового торрента. По возможности, желательно не удалять старые серии как можно дольше чтобы релизёр не столько продолжал раздавать старые серии, а смог сконцентрироваться на новых.

Этот торрент недоступен для скачивания без регистрации, однако доступен по публичной magnet-ссылке (источники с публичных трекеров). Перед использованием ссылки прочтите, пожалуйста Пользовательское соглашение, а также как можно дольше оставайтесь на раздаче! Для того, чтобы скачать сам торрент-файл (который видит больше источников), а также для того, чтобы поблагодарить релизера, вам необходимо зарегистрироваться. Если регистрироваться лень - вы можете также попробовать скачать релиз по нашим партнерским ссылкам ниже.

[underverse.su].t20622.torrent
Трекер: Зарегистрирован   [ 18.10.2012 14:18 ]  

Статус: проверено (by garry at 18.10.2012 14:20)
Поблагодарили: 2 человека
Тип торрента: публичный - доступные источники с открытых трекеров: 
Размер: 5,5 GB (занимает 1,26 DVDR, для записи нужно 2 болванки DVDR/RW)
 
 
Похожие темы
Форум Тема Автор Торрент Отв. Посл. сооб.
Личности Жизнь и судьба артиста Михаила Ульянова [2007 г., биография, документальный, TVRip] матроскин
0 | 1

1 | 991

4

29.06.2013 06:34



Последний раз редактировалось: nemos (06.11.2014 12:45), всего редактировалось 8 раз(а)

nemos Пол:Муж

16-Окт-2012 19:51

Обновлен

nemos Пол:Муж

17-Окт-2012 14:43

Обновлен,

nemos Пол:Муж

18-Окт-2012 14:18

Обновлена,

Яндекс.Метрика powered by Sphinx


В Н И М А Н И Е
Сайт не распространяет и не хранит электронные версии произведений, а лишь бесплатно и без коммерческой выгоды (не требуя взамен платы,
SMS и т.д.) предоставляет доступ к создаваемому пользователями каталогу ссылок на торрент-файлы, которые содержат только списки хеш-сумм.
Убедительная просьба с жалобами обращаться напрямую к пользователю, разместившему торрент файл.

Вверх