Loading...
Error

Мадагаскар 3 / Madagascar 3: Europe`s Most Wanted (Эрик Дарнелл, Том МакГрат, Конрад Вернон) [2012 г., мультфильм, комедия, приключения, семейный, HDRip] Dub (Rus,Ukr) + Original (Eng) + Sub (Rus,Ukr,Eng) HQ Underverse

Статистика раздачи
Размер:  1,46 GB   |    Зарегистрирован:  4 года 1 месяц   |    Скачан:  56 раз

Полного источника не было: 13 дней

Сидов:  0  |  0 KB/s  ]   Личеров:  4  |  0 KB/s  ]

* - сиды/пиры с внешних источников

   
 
Автор Сообщение

HQ Underverse 

15-Окт-2012 08:10

Мадагаскар 3 / Madagascar 3: Europe`s Most Wanted


Год выпуска: 2012
Жанр: мультфильм, комедия, приключения, семейный
Страна: США
Режиссер: Эрик Дарнелл, Том МакГрат, Конрад Вернон
Роли озвучивали: Бен Стиллер, Крис Рок, Дэвид Швиммер, Джада Пинкетт Смит, Саша Барон Коэн, Седрик «Развлекатель», Энди Рихтер, Том МакГрат, Фрэнсис МакДорманд, Джессика Честейн
Сюжет фильма:
Лев Алекс, зебра Марти, гиппопотамиха Глория и жираф Мелман, а также король Джулиан, Морис, Морт и Пингвины все еще пытаются вернуться в Нью-Йорк. На этот раз их путь пройдет через Европу, где они откроют свой цирк.
|
Качество видео: HDRip

Продолжительность: 01:33:24
Формат: avi
Видео: XviD, 704x384, 1844 kbps
Аудио #1: русский, дублированный [лицензия], AC3 5.1, 384 kbps
Аудио #2: английский, оригинал, AC3 5.1, 384 kbps (отдельным файлом: здесь)
Аудио #3: украинский, дублированный [лицензия], AC3 5.1, 384 kbps (отдельным файлом: здесь)
Субтитры #1: внешние, SRT, английский
Субтитры #2: внешние, SRT, русский
Субтитры #3: внешние, SRT, русский (FORCED)
Субтитры #4: внешние, SRT, украинский

Код:

General
Complete name                    : Z:\Видео\HQ\Мадагаскар 3\Madagascar.3.HDRip.XviD.AC3.Rus.D.HQ.Underverse.avi
Format                           : AVI
Format/Info                      : Audio Video Interleave
File size                        : 1.46 GiB
Duration                         : 1h 33mn
Overall bit rate                 : 2 237 Kbps
Writing application              : VirtualDubMod 1.5.10.2 (build 2542/release)
Writing library                  : VirtualDubMod build 2542/release

Video
ID                               : 0
Format                           : MPEG-4 Visual
Format profile                   : Streaming Video@L1
Format settings, BVOP            : Yes
Format settings, QPel            : No
Format settings, GMC             : No warppoints
Format settings, Matrix          : Custom
Muxing mode                      : Packed bitstream
Codec ID                         : XVID
Codec ID/Hint                    : XviD
Duration                         : 1h 33mn
Bit rate                         : 1 844 Kbps
Width                            : 704 pixels
Height                           : 384 pixels
Display aspect ratio             : 16/9
Frame rate                       : 23.976 fps
Resolution                       : 24 bits
Colorimetry                      : 4:2:0
Scan type                        : Progressive
Bits/(Pixel*Frame)               : 0.285
Stream size                      : 1.20 GiB (82%)
Writing library                  : XviD 64

Audio
ID                               : 1
Format                           : AC-3
Format/Info                      : Audio Coding 3
Codec ID                         : 2000
Duration                         : 1h 33mn
Bit rate mode                    : Constant
Bit rate                         : 384 Kbps
Channel(s)                       : 6 channels
Channel positions                : Front: L C R, Surround: L R, LFE
Sampling rate                    : 48.0 KHz
Stream size                      : 257 MiB (17%)
Alignment                        : Split accross interleaves
Interleave, duration             : 42 ms (1.00 video frame)
Interleave, preload duration     : 500 ms

General
Complete name                    : Z:\Видео\HQ\Мадагаскар 3\Madagascar.3.HDRip.XviD.AC3.Rus.D.HQ.Underverse.ENG.ac3
Format                           : AC-3
Format/Info                      : Audio Coding 3
File size                        : 257 MiB
Duration                         : 1h 33mn
Overall bit rate                 : 384 Kbps

Audio
Format                           : AC-3
Format/Info                      : Audio Coding 3
Duration                         : 1h 33mn
Bit rate mode                    : Constant
Bit rate                         : 384 Kbps
Channel(s)                       : 6 channels
Channel positions                : Front: L C R, Surround: L R, LFE
Sampling rate                    : 48.0 KHz
Stream size                      : 257 MiB (100%)

General
Complete name                    : Z:\Видео\HQ\Мадагаскар 3\Madagascar.3.HDRip.XviD.AC3.Rus.D.HQ.Underverse.UKR.ac3
Format                           : AC-3
Format/Info                      : Audio Coding 3
File size                        : 257 MiB
Duration                         : 1h 33mn
Overall bit rate                 : 384 Kbps

Audio
Format                           : AC-3
Format/Info                      : Audio Coding 3
Duration                         : 1h 33mn
Bit rate mode                    : Constant
Bit rate                         : 384 Kbps
Channel(s)                       : 6 channels
Channel positions                : Front: L C R, Surround: L R, LFE
Sampling rate                    : 48.0 KHz
Stream size                      : 257 MiB (100%)

Семпл: http://multi-up.com/775646

Релиз группы:

picpicpic
Для увеличения картинки щелкните мышкой по превью

Этот торрент недоступен для скачивания без регистрации, однако доступен по публичной magnet-ссылке (источники с публичных трекеров). Перед использованием ссылки прочтите, пожалуйста Пользовательское соглашение, а также как можно дольше оставайтесь на раздаче! Для того, чтобы скачать сам торрент-файл (который видит больше источников), а также для того, чтобы поблагодарить релизера, вам необходимо зарегистрироваться. Если регистрироваться лень - вы можете также попробовать скачать релиз по нашим партнерским ссылкам ниже.

[underverse.su].t20577.torrent
Трекер: Зарегистрирован   [ 15.10.2012 08:10 ]  

Статус: проверено (by Паукан at 15.10.2012 08:14)
Поблагодарили: 4 человека
Тип торрента: публичный - доступные источники с открытых трекеров: 
Размер: 1,46 GB (занимает 0,33 DVDR, для записи нужно 1 болванка DVDR/RW)
 
 
Похожие темы
Форум Тема Автор Торрент Отв. Посл. сооб.
Мультфильмы HQ Мадагаскар 2 / Madagascar: Escape 2 Africa (Эрик Дарнелл) [2008 г., комедия, приключения, BDRip] Печаль'ka
0 | 0

4 | 2388

4

03.10.2012 13:15

Мультфильмы HQ Мадагаскар / Madagascar (Эрик Дарнелл, Том МакГрат) [2005 г., комедия, приключения, семейный, мультфильм, BDRip] Печаль'ka
0 | 0

0 | 1790

8

17.06.2009 22:29

Зарубежные мультфильмы Мадагаскар 2 / Madagascar: Escape 2 Africa (Эрик Дарнелл, Том МакГрат) [2008 г., комедия, приключения, семейный, мультфильм, ..., DVDRip] FallenAngel
31 | 5

5 | 2168

29

19.08.2010 15:10

Зарубежные мультфильмы Мадагаскар 3 / Madagascar 3: Europe's Most Wanted (Эрик Дарнелл, Том МакГрат, Конрад Вернон) [2012 г., мультфильм, HDRip] Dub [лицензия] 90ytr90
6 | 0

2 | 1280

179

16.01.2013 15:52


Яндекс.Метрика powered by Sphinx


В Н И М А Н И Е
Сайт не распространяет и не хранит электронные версии произведений, а лишь бесплатно и без коммерческой выгоды (не требуя взамен платы,
SMS и т.д.) предоставляет доступ к создаваемому пользователями каталогу ссылок на торрент-файлы, которые содержат только списки хеш-сумм.
Убедительная просьба с жалобами обращаться напрямую к пользователю, разместившему торрент файл.

Вверх