Loading...
Error

Ищу друга на конец света / Seeking a Friend for the End of the World (Лорин Скафария) [2012 г., фантастика, драма, мелодрама, комедия, BDRip-AVC] Dub + Sub (Eng / Fre / Spa)

Статистика раздачи
Размер:  1,45 GB   |    Зарегистрирован:  4 года 1 месяц   |    Скачан:  17 раз

Полного источника не было: 1 год 10 месяцев

Сидов:  0  |  0 KB/s  ]   Личеров:  0  |  0 KB/s  ]

* - сиды/пиры с внешних источников

   
 
Автор Сообщение

DarkAngel Пол:Муж

14-Окт-2012 21:07

Ищу друга на конец света / Seeking a Friend for the End of the World


Год выпуска: 2012
Жанр: фантастика, драма, мелодрама, комедия
Страна: США
Режиссер: Лорин Скафария
В ролях: Стив Карелл, Кира Найтли, Адам Броди, Дерек Люк, Уильям Л. Питерсен, Роб Кордри, Мартин Шин, Тонита Кастро, Мелани Лински, Пэттон Освальт
Сюжет фильма:
К Земле приближается огромный астероид. В такой момент большинство мужчин пустилось бы во все тяжкие. Но только не Додж. Он отправляется на поиски школьной подружки в компании сексуальной соседки Пенни.

  • Мировая премьера: 18 июня 2012
  • Российская премьера: 19 июля 2012, «UPI»



Качество видео: BDRip-AVC

Продолжительность: 01:41:02
Формат: MKV
Видео: MPEG-4 AVC, 912x390 (2.35:1), 1781 kbps
Аудио: русский, дублированный [лицензия], AC3 5.1, 448 kbps
Субтитры #1: тип: вшитые, английский, формат: SRT
Субтитры #2: тип: вшитые, французский, формат: SRT
Субтитры #3: тип: вшитые, испанский, формат: SRT

Код:

General
 Unique ID : 202427800903129777100330711196308380954 (0x984A2D24328D37C1BEBE2ABD42E49D1A)
 Complete name : D:\Ishu.druga.na.konec.sveta.2012.x264.BDRip.(AVC).fanatus.mkv
 Format : Matroska
 Format version : Version 2
 File size : 1.45 GiB
 Duration : 1h 41mn
 Overall bit rate : 2 052 Kbps
 Movie name : Seeking a Friend for the End of the World (2012) - fanatus
 Encoded date : UTC 2012-10-12 12:02:48
 Writing application : mkvmerge v3.4.0 ('Rapunzel') сборка от May 15 2010 09:38:20
 Writing library : libebml v0.8.0 + libmatroska v0.9.0

Video
 ID : 1
 Format : AVC
 Format/Info : Advanced Video Codec
 Format profile : High@L4.1
 Format settings, CABAC : Yes
 Format settings, ReFrames : 10 frames
 Codec ID : V_MPEG4/ISO/AVC
 Duration : 1h 41mn
 Bit rate : 1 607 Kbps
 Width : 912 pixels
 Height : 390 pixels
 Display aspect ratio : 2.35:1
 Frame rate : 23.976 fps
 Color space : YUV
 Chroma subsampling : 4:2:0
 Bit depth : 8 bits
 Scan type : Progressive
 Bits/(Pixel*Frame) : 0.188
 Stream size : 1.10 GiB (76%)
 Title : Seeking a Friend for the End of the World (2012)
 Writing library : x264 core 128 r2216 198a7ea
 Encoding settings : cabac=1 / ref=10 / deblock=1:-2:-1 / analyse=0x3:0x133 / me=umh / subme=11 / psy=1 / psy_rd=1.00:0.00 / mixed_ref=1 / me_range=48 / chroma_me=1 / trellis=2 / 8x8dct=1 / cqm=0 / deadzone=21,11 / fast_pskip=0 / chroma_qp_offset=-2 / threads=16 / lookahead_threads=2 / sliced_threads=0 / nr=0 / decimate=1 / interlaced=0 / bluray_compat=0 / constrained_intra=0 / bframes=10 / b_pyramid=2 / b_adapt=2 / b_bias=0 / direct=3 / weightb=1 / open_gop=0 / weightp=2 / keyint=240 / keyint_min=23 / scenecut=40 / intra_refresh=0 / rc_lookahead=240 / rc=2pass / mbtree=1 / bitrate=1607 / ratetol=1.0 / qcomp=0.60 / qpmin=0 / qpmax=69 / qpstep=4 / cplxblur=20.0 / qblur=0.5 / vbv_maxrate=50000 / vbv_bufsize=62500 / nal_hrd=none / ip_ratio=1.40 / aq=2:1.05
 Language : English
 Default : Yes
 Forced : No

Audio
 ID : 2
 Format : AC-3
 Format/Info : Audio Coding 3
 Mode extension : CM (complete main)
 Format settings, Endianness : Big
 Codec ID : A_AC3
 Duration : 1h 41mn
 Bit rate mode : Constant
 Bit rate : 448 Kbps
 Channel(s) : 6 channels
 Channel positions : Front: L C R, Side: L R, LFE
 Sampling rate : 48.0 KHz
 Bit depth : 16 bits
 Compression mode : Lossy
 Stream size : 324 MiB (22%)
 Title : Dub
 Language : Russian
 Default : Yes
 Forced : No

Text #1
 ID : 3
 Format : UTF-8
 Codec ID : S_TEXT/UTF8
 Codec ID/Info : UTF-8 Plain Text
 Language : English
 Default : No
 Forced : No

Text #2
 ID : 4
 Format : UTF-8
 Codec ID : S_TEXT/UTF8
 Codec ID/Info : UTF-8 Plain Text
 Language : French
 Default : No
 Forced : No

Text #3
 ID : 5
 Format : UTF-8
 Codec ID : S_TEXT/UTF8
 Codec ID/Info : UTF-8 Plain Text
 Language : Spanish
 Default : No
 Forced : No

Menu
 00:00:00.000 : en:00:00:00.000
 00:04:28.018 : en:00:04:28.018
 00:10:30.547 : en:00:10:30.547
 00:16:37.330 : en:00:16:37.330
 00:21:35.044 : en:00:21:35.044
 00:24:58.080 : en:00:24:58.080
 00:31:22.589 : en:00:31:22.589
 00:35:11.401 : en:00:35:11.401
 00:40:37.685 : en:00:40:37.685
 00:45:17.840 : en:00:45:17.840
 00:50:00.623 : en:00:50:00.623
 00:54:46.700 : en:00:54:46.700
 01:01:06.413 : en:01:01:06.413
 01:05:32.011 : en:01:05:32.011
 01:13:14.181 : en:01:13:14.181
 01:17:37.611 : en:01:17:37.611
 01:21:50.280 : en:01:21:50.280
 01:25:44.890 : en:01:25:44.890
 01:28:24.966 : en:01:28:24.966
 01:33:57.090 : en:01:33:57.090
Семпл: http://multi-up.com/774257

picpicpic
Для увеличения картинки щелкните мышкой по превью

Этот торрент недоступен для скачивания без регистрации, однако доступен по публичной magnet-ссылке (источники с публичных трекеров). Перед использованием ссылки прочтите, пожалуйста Пользовательское соглашение, а также как можно дольше оставайтесь на раздаче! Для того, чтобы скачать сам торрент-файл (который видит больше источников), а также для того, чтобы поблагодарить релизера, вам необходимо зарегистрироваться. Если регистрироваться лень - вы можете также попробовать скачать релиз по нашим партнерским ссылкам ниже.

[underverse.su].t20573.torrent
Трекер: Зарегистрирован   [ 14.10.2012 21:07 ]  

Статус: проверено (by Паукан at 15.10.2012 07:30)
Поблагодарили: пока никто не поблагодарил...
Тип торрента: публичный - доступные источники с открытых трекеров: 
Размер: 1,45 GB (занимает 1/3 DVDR, для записи нужно 1 болванка DVDR/RW)
 
 
Похожие темы
Форум Тема Автор Торрент Отв. Посл. сооб.
Зарубежное кино [DVDRip, Low-Res HDRip, и т.д.] Ищу друга на конец света / Seeking a Friend for the End of the World (Лорен Скафария) [2012 г., фантастика, драма, мелодрама, комедия, DVDRip] RG NewCinema
47 | 0

0 | 1151

105

17.08.2012 09:40

Зарубежное кино [DVDRip, Low-Res HDRip, и т.д.] Ищу друга на конец света / Seeking a Friend for the End of the World (Лорин Скафария) [2012 г., фантастика, драма, мелодрама, комедия, BDRip] Dub + Original Garnett
35 | 1

0 | 673

21

22.10.2012 15:40

Зарубежное кино [HDDVDRip / BDRip / WEB-DL / HDTV 1080/720р] Ищу друга на конец света / Seeking a Friend for the End of the World (Лорин Скафария) [2012 г., фантастика, драма, мелодрама, комедия, BDRip 1080p] Dub + Original DarkAngel
31 | 0

1 | 715

17

25.10.2012 22:20


Яндекс.Метрика powered by Sphinx


В Н И М А Н И Е
Сайт не распространяет и не хранит электронные версии произведений, а лишь бесплатно и без коммерческой выгоды (не требуя взамен платы,
SMS и т.д.) предоставляет доступ к создаваемому пользователями каталогу ссылок на торрент-файлы, которые содержат только списки хеш-сумм.
Убедительная просьба с жалобами обращаться напрямую к пользователю, разместившему торрент файл.

Вверх