Loading...
Error

Правосудие Декстера / Dexter / Сезон: 6, серии: 12 (Джон Дал, Стефан Шварц, Роберт Либерман) [2011 г., триллер, драма, криминал, детектив, HDTVRip/BDRip] MVO + Original

Статистика раздачи
Размер:  8,07 GB   |    Зарегистрирован:  4 года 1 месяц   |    Скачан:  9 раз

Полного источника не было: 10 месяцев

Сидов:  0  |  0 KB/s  ]   Личеров:  0  |  0 KB/s  ]

* - сиды/пиры с внешних источников

   
 
Автор Сообщение

garry Пол:Муж

13-Окт-2012 20:15

Правосудие Декстера / Dexter / Сезон: 6, серии: 12


Год выпуска: 2011
Жанр: триллер, драма, криминал, детектив
Страна: США
Режиссер: Джон Дал, Стефан Шварц, Роберт Либерман
В ролях: Майкл С. Холл, Дженнифер Карпентер, Лорен Велес, Дэвид Зайас, Джеймс Римар, К.С. Ли, Десмонд Харрингтон, Джули Бенц, Кристина Робинсон, Престон Бэйли
Сюжет фильма:
Я — Декстер. Декстер Морган. Я работаю судмедэкспертом в полиции Майами. Я не понимаю любви, мне безразличен секс, и у меня нет чувств. А еще я серийный убийца.

Мой отец был полицейским и прекрасно обучил меня прятать улики. Обычным гражданам не стоит меня бояться, я убиваю только преступников, подонков, до которых почему-либо не смогла или не захотела добраться полиция. Я убиваю их, аккуратно распиливаю на части и избавляюсь от трупов. Убийство для меня — творческий акт, искусство.

Но однажды… В Майами появляется некто, равный мне. Даже превзошедший меня. Сумевший меня заинтересовать. Предложивший мне своего рода товарищеское состязание. Кто этот загадочный и неуловимый «икс»?..

Качество видео: HDTVRip, BDRip

Продолжительность: ~00:55:00 x 12
Формат: AVI
Видео: DivX / XviD, 720x400, ~1400 kbps
Аудио #1: русский, многоголосый закадровый [профессиональный, Novafilm], AC3 2.0, 192 kbps
Аудио #2: английский, оригинал, AC3 2.0, 192 kbps

Код:

General
Complete name                            : D:\Video\Serials\Dexter.s06.HDTVRip.rus.eng.novafilm\dexter.s06e01.hdtv.rus.eng.*другой трекер*.avi
Format                                   : AVI
Format/Info                              : Audio Video Interleave
File size                                : 677 MiB
Duration                                 : 54mn 58s
Overall bit rate                         : 1 723 Kbps
Writing application                      : VirtualDubMod 1.5.10.2 (build 2542/release)
Writing library                          : VirtualDubMod build 2542/release

Video
ID                                       : 0
Format                                   : MPEG-4 Visual
Format settings, BVOP                    : 1
Format settings, QPel                    : No
Format settings, GMC                     : No warppoints
Format settings, Matrix                  : Default (H.263)
Muxing mode                              : Packed bitstream
Codec ID                                 : DX50
Codec ID/Hint                            : DivX 5
Duration                                 : 54mn 58s
Bit rate                                 : 1 325 Kbps
Width                                    : 720 pixels
Height                                   : 400 pixels
Display aspect ratio                     : 16:9
Frame rate                               : 23.976 fps
Color space                              : YUV
Chroma subsampling                       : 4:2:0
Bit depth                                : 8 bits
Scan type                                : Progressive
Compression mode                         : Lossy
Bits/(Pixel*Frame)                       : 0.192
Stream size                              : 521 MiB (77%)
Writing library                          : DivX 6.8.3-6.8.4 (UTC 2008-06-07)

Audio #1
ID                                       : 1
Format                                   : AC-3
Format/Info                              : Audio Coding 3
Mode extension                           : CM (complete main)
Format settings, Endianness              : Big
Codec ID                                 : 2000
Duration                                 : 54mn 58s
Bit rate mode                            : Constant
Bit rate                                 : 192 Kbps
Channel(s)                               : 2 channels
Channel positions                        : Front: L R
Sampling rate                            : 48.0 KHz
Bit depth                                : 16 bits
Compression mode                         : Lossy
Stream size                              : 75.5 MiB (11%)
Alignment                                : Split accross interleaves
Interleave, duration                     : 42 ms (1.00 video frame)
Interleave, preload duration             : 500 ms

Audio #2
ID                                       : 2
Format                                   : AC-3
Format/Info                              : Audio Coding 3
Mode extension                           : CM (complete main)
Format settings, Endianness              : Big
Codec ID                                 : 2000
Duration                                 : 54mn 57s
Bit rate mode                            : Constant
Bit rate                                 : 192 Kbps
Channel(s)                               : 2 channels
Channel positions                        : Front: L R
Sampling rate                            : 48.0 KHz
Bit depth                                : 16 bits
Compression mode                         : Lossy
Stream size                              : 75.5 MiB (11%)
Alignment                                : Split accross interleaves
Interleave, duration                     : 42 ms (1.00 video frame)
Interleave, preload duration             : 500 ms
Семпл: http://multi-up.com/572253

Релиз группы:

picpicpic
Для увеличения картинки щелкните мышкой по превью

Этот торрент недоступен для скачивания без регистрации, однако доступен по публичной magnet-ссылке (источники с публичных трекеров). Перед использованием ссылки прочтите, пожалуйста Пользовательское соглашение, а также как можно дольше оставайтесь на раздаче! Для того, чтобы скачать сам торрент-файл (который видит больше источников), а также для того, чтобы поблагодарить релизера, вам необходимо зарегистрироваться. Если регистрироваться лень - вы можете также попробовать скачать релиз по нашим партнерским ссылкам ниже.

[underverse.su].t20563.torrent
Трекер: Зарегистрирован   [ 13.10.2012 20:15 ]  

Статус: проверено (by garry at 13.10.2012 20:16)
Поблагодарили: пока никто не поблагодарил...
Тип торрента: публичный - доступные источники с открытых трекеров: 
Размер: 8,07 GB (занимает 1,84 DVDR, для записи нужно 2 болванки DVDR/RW)
 
 
Похожие темы
Форум Тема Автор Торрент Отв. Посл. сооб.
Зарубежные сериалы Правосудие Декстера / Dexter / Сезон: 1, серии: 12 (Джон Дал, Роберт Либерман) [2006 г., триллер, драма, криминал, детектив, BDRip] MVO garry
4 | 7

0 | 769

13

10.10.2012 11:11

Зарубежные сериалы Правосудие Декстера / Dexter / Сезон: 2, серии: 12 (Майкл Куэста, Тони Голдвин) [2007 г., триллер, драма, криминал, детектив, BDRip] MVO garry
6 | 3

0 | 726

5

13.10.2012 18:17

Зарубежные сериалы Правосудие Декстера / Dexter / Сезон: 3, серии: 12 (Майкл Куэста, Тони Голдуин) [2008 г., триллер, драма, криминал, детектив, HDRip] MVO garry
0 | 0

0 | 1954

7

13.10.2012 18:45

Зарубежные сериалы Правосудие Декстера / Dexter / Сезон: 4, серии: 12 (Маркос Сига, Кит Гордон, Майкл Куэста) [2009 г., триллер, драма, криминал, детектив, HDRip] MVO + Original garry
7 | 0

0 | 729

6

13.10.2012 19:10

Зарубежные сериалы Правосудие Декстера / Dexter / Сезон: 5, серии: 12 (Маркос Сига, Тим Хантер, Кит Гордон) [2010 г., триллер, драма, криминал, детектив, HDTVRip] MVO + Original garry
4 | 0

0 | 743

12

13.10.2012 19:43

Зарубежные сериалы Правосудие Декстера / Dexter / Сезон: 7, серии: 1-12 (Маркос Сига, Тим Хантер, Кит Гордон) [2012 г., триллер, драма, криминал, детектив, HDTVRip] MVO + Original garry
10 | 2

3 | 2209

12

21.12.2012 21:34


Яндекс.Метрика powered by Sphinx


В Н И М А Н И Е
Сайт не распространяет и не хранит электронные версии произведений, а лишь бесплатно и без коммерческой выгоды (не требуя взамен платы,
SMS и т.д.) предоставляет доступ к создаваемому пользователями каталогу ссылок на торрент-файлы, которые содержат только списки хеш-сумм.
Убедительная просьба с жалобами обращаться напрямую к пользователю, разместившему торрент файл.

Вверх