Loading...
Error

Правосудие Декстера / Dexter / Сезон: 5, серии: 12 (Маркос Сига, Тим Хантер, Кит Гордон) [2010 г., триллер, драма, криминал, детектив, HDTVRip] MVO + Original

Статистика раздачи
Размер:  8,35 GB   |    Зарегистрирован:  4 года 1 месяц   |    Скачан:  12 раз

Полного источника не было: 4 месяца 8 дней

Сидов:  0  |  0 KB/s  ]   Личеров:  0  |  0 KB/s  ]

* - сиды/пиры с внешних источников

   
 
Автор Сообщение

garry Пол:Муж

13-Окт-2012 19:43

Правосудие Декстера / Dexter / Сезон: 5, серии: 12


Год выпуска: 2010
Жанр: триллер, драма, криминал, детектив
Страна: США
Режиссер: Маркос Сига, Тим Хантер, Кит Гордон
В ролях: Майкл С. Холл, Дженнифер Карпентер, Лорен Велес, Дэвид Зайас, Джеймс Римар, К.С. Ли, Десмонд Харрингтон, Джули Бенц, Кристина Робинсон, Престон Бэйли
Сюжет фильма:
Я — Декстер. Декстер Морган. Я работаю судмедэкспертом в полиции Майами. Я не понимаю любви, мне безразличен секс, и у меня нет чувств. А еще я серийный убийца.

Мой отец был полицейским и прекрасно обучил меня прятать улики. Обычным гражданам не стоит меня бояться, я убиваю только преступников, подонков, до которых почему-либо не смогла или не захотела добраться полиция. Я убиваю их, аккуратно распиливаю на части и избавляюсь от трупов. Убийство для меня — творческий акт, искусство.

Но однажды… В Майами появляется некто, равный мне. Даже превзошедший меня. Сумевший меня заинтересовать. Предложивший мне своего рода товарищеское состязание. Кто этот загадочный и неуловимый «икс»?..

Качество видео: HDTVRip

Продолжительность: ~00:55:00 x 12
Формат: AVI
Видео: DivX, 720x400, ~1600 kbps
Аудио #1: русский, многоголосый закадровый [профессиональный, Novafilm], MP3 2.0, 192 kbps
Аудио #2: английский, оригинал, MP3 2.0, 192 kbps
Субтитры: тип: внешние, русский, формат: SRT

Код:

General
Complete name                            : D:\Downloads\Torrents\Dexter - Season 5 (NovaFilm) + rus sub\Dexter_s05e01_HDTVRip.rus.[NovaFilm].eng.avi
Format                                   : AVI
Format/Info                              : Audio Video Interleave
File size                                : 769 MiB
Duration                                 : 55mn 10s
Overall bit rate                         : 1 948 Kbps
Writing application                      : VirtualDubMod 1.5.10.2 (build 2540/release)
Writing library                          : VirtualDubMod build 2540/release

Video
ID                                       : 0
Format                                   : MPEG-4 Visual
Format profile                           : Simple@L1
Format settings, BVOP                    : No
Format settings, QPel                    : No
Format settings, GMC                     : No warppoints
Format settings, Matrix                  : Default (H.263)
Codec ID                                 : DX50
Codec ID/Hint                            : DivX 5
Duration                                 : 55mn 10s
Bit rate                                 : 1 550 Kbps
Width                                    : 720 pixels
Height                                   : 400 pixels
Display aspect ratio                     : 16:9
Frame rate                               : 23.976 fps
Color space                              : YUV
Chroma subsampling                       : 4:2:0
Bit depth                                : 8 bits
Scan type                                : Progressive
Compression mode                         : Lossy
Bits/(Pixel*Frame)                       : 0.224
Stream size                              : 612 MiB (80%)
Writing library                          : Lavc52.58.0

Audio #1
ID                                       : 1
Format                                   : MPEG Audio
Format version                           : Version 1
Format profile                           : Layer 3
Mode                                     : Joint stereo
Mode extension                           : MS Stereo
Codec ID                                 : 55
Codec ID/Hint                            : MP3
Duration                                 : 55mn 10s
Bit rate mode                            : Constant
Bit rate                                 : 192 Kbps
Channel(s)                               : 2 channels
Sampling rate                            : 48.0 KHz
Compression mode                         : Lossy
Stream size                              : 75.8 MiB (10%)
Alignment                                : Split accross interleaves
Interleave, duration                     : 42 ms (1.00 video frame)
Interleave, preload duration             : 500 ms

Audio #2
ID                                       : 2
Format                                   : MPEG Audio
Format version                           : Version 1
Format profile                           : Layer 3
Mode                                     : Joint stereo
Codec ID                                 : 55
Codec ID/Hint                            : MP3
Duration                                 : 55mn 10s
Bit rate mode                            : Constant
Bit rate                                 : 192 Kbps
Channel(s)                               : 2 channels
Sampling rate                            : 48.0 KHz
Compression mode                         : Lossy
Stream size                              : 75.8 MiB (10%)
Alignment                                : Aligned on interleaves
Interleave, duration                     : 42 ms (1.00 video frame)
Interleave, preload duration             : 504 ms
Семпл: http://multi-up.com/775013

Релиз группы: svm-mfs

picpicpic
Для увеличения картинки щелкните мышкой по превью

Этот торрент недоступен для скачивания без регистрации, однако доступен по публичной magnet-ссылке (источники с публичных трекеров). Перед использованием ссылки прочтите, пожалуйста Пользовательское соглашение, а также как можно дольше оставайтесь на раздаче! Для того, чтобы скачать сам торрент-файл (который видит больше источников), а также для того, чтобы поблагодарить релизера, вам необходимо зарегистрироваться. Если регистрироваться лень - вы можете также попробовать скачать релиз по нашим партнерским ссылкам ниже.

[underverse.su].t20562.torrent
Трекер: Зарегистрирован   [ 13.10.2012 19:43 ]  

Статус: проверено (by garry at 13.10.2012 19:44)
Поблагодарили: 1 человек
Тип торрента: публичный - доступные источники с открытых трекеров: 
Размер: 8,35 GB (занимает 1,91 DVDR, для записи нужно 2 болванки DVDR/RW)
 
 
Похожие темы
Форум Тема Автор Торрент Отв. Посл. сооб.
Зарубежные сериалы Правосудие Декстера / Dexter / Сезон: 1, серии: 12 (Джон Дал, Роберт Либерман) [2006 г., триллер, драма, криминал, детектив, BDRip] MVO garry
4 | 7

0 | 767

13

10.10.2012 11:11

Зарубежные сериалы Правосудие Декстера / Dexter / Сезон: 2, серии: 12 (Майкл Куэста, Тони Голдвин) [2007 г., триллер, драма, криминал, детектив, BDRip] MVO garry
6 | 3

0 | 722

5

13.10.2012 18:17

Зарубежные сериалы Правосудие Декстера / Dexter / Сезон: 3, серии: 12 (Майкл Куэста, Тони Голдуин) [2008 г., триллер, драма, криминал, детектив, HDRip] MVO garry
0 | 0

0 | 1951

7

13.10.2012 18:45

Зарубежные сериалы Правосудие Декстера / Dexter / Сезон: 6, серии: 12 (Джон Дал, Стефан Шварц, Роберт Либерман) [2011 г., триллер, драма, криминал, детектив, HDTVRip/BDRip] MVO + Original garry
24 | 2

0 | 691

9

13.10.2012 20:15

Зарубежные сериалы Правосудие Декстера / Dexter / Сезон: 4, серии: 12 (Маркос Сига, Кит Гордон, Майкл Куэста) [2009 г., триллер, драма, криминал, детектив, HDRip] MVO + Original garry
7 | 0

0 | 726

6

13.10.2012 19:10

Зарубежные сериалы Правосудие Декстера / Dexter / Сезон: 7, серии: 1-12 (Маркос Сига, Тим Хантер, Кит Гордон) [2012 г., триллер, драма, криминал, детектив, HDTVRip] MVO + Original garry
10 | 2

3 | 2206

12

21.12.2012 21:34


Яндекс.Метрика powered by Sphinx


В Н И М А Н И Е
Сайт не распространяет и не хранит электронные версии произведений, а лишь бесплатно и без коммерческой выгоды (не требуя взамен платы,
SMS и т.д.) предоставляет доступ к создаваемому пользователями каталогу ссылок на торрент-файлы, которые содержат только списки хеш-сумм.
Убедительная просьба с жалобами обращаться напрямую к пользователю, разместившему торрент файл.

Вверх