Loading...
Error

Правосудие Декстера / Dexter / Сезон: 2, серии: 12 (Майкл Куэста, Тони Голдвин) [2007 г., триллер, драма, криминал, детектив, BDRip] MVO

Статистика раздачи
Размер:  10,45 GB   |    Зарегистрирован:  4 года 1 месяц   |    Скачан:  5 раз

Полного источника не было: 2 дня 16 часов

Сидов:  0  |  0 KB/s  ]   Личеров:  0  |  0 KB/s  ]

* - сиды/пиры с внешних источников

   
 
Автор Сообщение

garry Пол:Муж

13-Окт-2012 18:17

Правосудие Декстера / Dexter / Сезон: 2, серии: 12


Год выпуска: 2007
Жанр: триллер, драма, криминал, детектив
Страна: США
Режиссер: Майкл Куэста, Тони Голдвин
В ролях: Майкл С. Холл, Дженнифер Карпентер, Лорен Велес, Дэвид Зайас, Джеймс Римар, К.С. Ли, Десмонд Харрингтон, Джули Бенц, Кристина Робинсон, Престон Бэйли
Сюжет фильма:
Я — Декстер. Декстер Морган. Я работаю судмедэкспертом в полиции Майами. Я не понимаю любви, мне безразличен секс, и у меня нет чувств. А еще я серийный убийца.

Мой отец был полицейским и прекрасно обучил меня прятать улики. Обычным гражданам не стоит меня бояться, я убиваю только преступников, подонков, до которых почему-либо не смогла или не захотела добраться полиция. Я убиваю их, аккуратно распиливаю на части и избавляюсь от трупов. Убийство для меня — творческий акт, искусство.

Но однажды… В Майами появляется некто, равный мне. Даже превзошедший меня. Сумевший меня заинтересовать. Предложивший мне своего рода товарищеское состязание. Кто этот загадочный и неуловимый «икс»?..

Качество видео: BDRip

Продолжительность: ~00:55:00 x 12
Формат: AVI
Видео: XviD, 720x400, ~1550 kbps
Аудио #1: русский, многоголосый закадровый [профессиональный, Novafilm], AC3 5.1, 384 kbps
Аудио #2: английский, оригинал, AC3 5.1, 384 kbps (отдельно)
Субтитры #1: тип: внешние, русский, формат: SRT
Субтитры #2: тип: внешние, английский, формат: SRT

Код:

General
Complete name                            : D:\Downloads\Torrents\Dekster.S02.2007.RUS.BDRip.XviD.AC3.-HQ-ViDEO\Dekster.S02E01.Ono.Zhivjot.2007.RUS.BDRip.XviD.AC3.-HQ-ViDEO.avi
Format                                   : AVI
Format/Info                              : Audio Video Interleave
File size                                : 745 MiB
Duration                                 : 53mn 19s
Overall bit rate                         : 1 953 Kbps
Writing application                      : VirtualDubModRus 1.5.10.2 (build 2542/release)
Writing library                          : VirtualDubMod build 2542/release

Video
ID                                       : 0
Format                                   : MPEG-4 Visual
Format profile                           : Advanced Simple@L5
Format settings, BVOP                    : 1
Format settings, QPel                    : No
Format settings, GMC                     : No warppoints
Format settings, Matrix                  : Default (MPEG)
Codec ID                                 : XVID
Codec ID/Hint                            : XviD
Duration                                 : 53mn 19s
Bit rate                                 : 1 559 Kbps
Width                                    : 720 pixels
Height                                   : 400 pixels
Display aspect ratio                     : 16:9
Frame rate                               : 23.976 fps
Color space                              : YUV
Chroma subsampling                       : 4:2:0
Bit depth                                : 8 bits
Scan type                                : Progressive
Compression mode                         : Lossy
Bits/(Pixel*Frame)                       : 0.226
Stream size                              : 595 MiB (80%)
Writing library                          : XviD 1.2.1 (UTC 2008-12-04)

Audio
ID                                       : 1
Format                                   : AC-3
Format/Info                              : Audio Coding 3
Mode extension                           : CM (complete main)
Format settings, Endianness              : Big
Codec ID                                 : 2000
Duration                                 : 53mn 18s
Bit rate mode                            : Constant
Bit rate                                 : 384 Kbps
Channel(s)                               : 6 channels
Channel positions                        : Front: L C R, Side: L R, LFE
Sampling rate                            : 48.0 KHz
Bit depth                                : 16 bits
Compression mode                         : Lossy
Stream size                              : 146 MiB (20%)
Alignment                                : Split accross interleaves
Interleave, duration                     : 42 ms (1.00 video frame)
Interleave, preload duration             : 500 ms
Семпл: http://multi-up.com/774969

Релиз группы:

picpicpic
Для увеличения картинки щелкните мышкой по превью

Этот торрент недоступен для скачивания без регистрации, однако доступен по публичной magnet-ссылке (источники с публичных трекеров). Перед использованием ссылки прочтите, пожалуйста Пользовательское соглашение, а также как можно дольше оставайтесь на раздаче! Для того, чтобы скачать сам торрент-файл (который видит больше источников), а также для того, чтобы поблагодарить релизера, вам необходимо зарегистрироваться. Если регистрироваться лень - вы можете также попробовать скачать релиз по нашим партнерским ссылкам ниже.

[underverse.su].t20557.torrent
Трекер: Зарегистрирован   [ 13.10.2012 18:17 ]  

Статус: проверено (by garry at 13.10.2012 18:19)
Поблагодарили: 1 человек
Тип торрента: публичный - доступные источники с открытых трекеров: 
Размер: 10,45 GB (занимает 2,39 DVDR, для записи нужно 3 болванки DVDR/RW)
 
 
Похожие темы
Форум Тема Автор Торрент Отв. Посл. сооб.
Зарубежные сериалы Правосудие Декстера / Dexter / Сезон: 1, серии: 12 (Джон Дал, Роберт Либерман) [2006 г., триллер, драма, криминал, детектив, BDRip] MVO garry
4 | 7

0 | 755

13

10.10.2012 11:11

Зарубежные сериалы Правосудие Декстера / Dexter / Сезон: 3, серии: 12 (Майкл Куэста, Тони Голдуин) [2008 г., триллер, драма, криминал, детектив, HDRip] MVO garry
0 | 0

0 | 1939

7

13.10.2012 18:45

Зарубежные сериалы Правосудие Декстера / Dexter / Сезон: 6, серии: 12 (Джон Дал, Стефан Шварц, Роберт Либерман) [2011 г., триллер, драма, криминал, детектив, HDTVRip/BDRip] MVO + Original garry
24 | 2

0 | 680

9

13.10.2012 20:15

Зарубежные сериалы Правосудие Декстера / Dexter / Сезон: 4, серии: 12 (Маркос Сига, Кит Гордон, Майкл Куэста) [2009 г., триллер, драма, криминал, детектив, HDRip] MVO + Original garry
7 | 0

0 | 714

6

13.10.2012 19:10

Зарубежные сериалы Правосудие Декстера / Dexter / Сезон: 5, серии: 12 (Маркос Сига, Тим Хантер, Кит Гордон) [2010 г., триллер, драма, криминал, детектив, HDTVRip] MVO + Original garry
4 | 0

0 | 727

12

13.10.2012 19:43

Зарубежные сериалы Правосудие Декстера / Dexter / Сезон: 7, серии: 1-12 (Маркос Сига, Тим Хантер, Кит Гордон) [2012 г., триллер, драма, криминал, детектив, HDTVRip] MVO + Original garry
10 | 2

3 | 2193

12

21.12.2012 21:34


Яндекс.Метрика powered by Sphinx


В Н И М А Н И Е
Сайт не распространяет и не хранит электронные версии произведений, а лишь бесплатно и без коммерческой выгоды (не требуя взамен платы,
SMS и т.д.) предоставляет доступ к создаваемому пользователями каталогу ссылок на торрент-файлы, которые содержат только списки хеш-сумм.
Убедительная просьба с жалобами обращаться напрямую к пользователю, разместившему торрент файл.

Вверх