Loading...
Error

Лорд. Пёс-полицейский / Серии: 1-24(60) (Егор Грамматиков, Александр Грабарь) [2012, Приключения, криминал, SATRip](Обновляемая)

Статистика раздачи
Размер:  12,12 GB   |    Зарегистрирован:  3 года 2 месяца   |    Скачан:  3 раза

Полного источника не было: 12 часов

Сидов:  0  |  0 KB/s  ]   Личеров:  0  |  0 KB/s  ]

* - сиды/пиры с внешних источников

   
 
Автор Сообщение

nemos Пол:Муж

13-Окт-2012 16:32

Лорд. Пёс-полицейский


Год выпуска: 2012
Жанр: Приключения, криминал
Страна: Россия
Режиссер: Егор Грамматиков, Александр Грабарь
В ролях: Кирилл Гребенщиков, Юрий Сазонов, Сергей Пинчук, Виктор Низовой, Валерий Афанасьев, Светлана Брейкина, Мария Клюквина, Юлия Назаренко, Анна Карышева, Илья Ждаников
Сюжет фильма:
Немецкая овчарка Лорд, с гордостью носящая звание «пес-полицейский», настоящая легенда убойного отдела. Это невероятно умный, хитрый и добрый пес. А благодаря своему уникальному нюху, сообразительности и моментальной реакции он ловко догоняет преступников, находит наркотики и слышит бесшумную поступь нападающего. Нередко именно Лорду удается уловить детали, которые в конце концов и приводят к раскрытию преступлений. И хотя проказы Лорда и его шкодливый характер подчас доставляют его двуногим коллегам немало беспокойства, обаятельному псу, готовому каждую минуту рисковать собственной жизнью, можно простить все…

Следователь убойного отдела Артем Рудин, однажды оказавшись в эпицентре полицейской спецоперации, знакомится с удивительной служебной собакой по кличке Лорд. Отважный пес спасает Рудину жизнь, а сам оказывается ранен. К сожалению, в этот же момент погибает хозяин собаки. Кинологи сообщают Артему, что им придется усыпить Лорда, ведь он никогда уже не сможет принять нового наставника. Пес тяжело переживает потерю, отказывается от еды и питья, а потом и вовсе сбегает из полицейского питомника. Но Артем находит несчастную собаку на могиле бывшего хозяина, проникается к ней сочувствием и забирает к себе.


Качество видео: SATRip

Продолжительность: 00:41:07серия
Формат: AVI
Видео: 720x400 , 1 501 kbps
Аудио: русский, MP3 2.0, 128 kbps

Код:

E:\С underverse-3 Фильмы\Lord.pes.policejskij\Lord.pes.policejskij.24.avi
   General
      Complete name : E:\С underverse-3 Фильмы\Lord.pes.policejskij\Lord.pes.policejskij.24.avi
      Format : AVI
      Format/Info : Audio Video Interleave
      File size : 482 MiB
      Duration : 41mn 7s
      Overall bit rate : 1 639 Kbps
      Writing library : VirtualDub build 32842/release
   Video #0
      ID : 0
      Format : MPEG-4 Visual
      Format settings, BVOP : 1
      Format settings, QPel : No
      Format settings, GMC : No warppoints
      Format settings, Matrix : Default (H.263)
      Muxing mode : Packed bitstream
      Codec ID : DX50
      Codec ID/Hint : DivX 5
      Duration : 41mn 7s
      Bit rate : 1 501 Kbps
      Width : 720 pixels
      Height : 400 pixels
      Display aspect ratio : 16:9
      Frame rate : 25.000 fps
      Color space : YUV
      Chroma subsampling : 4:2:0
      Bit depth : 8 bits
      Scan type : Progressive
      Compression mode : Lossy
      Bits/(Pixel*Frame) : 0.208
      Stream size : 442 MiB (92%)
      Writing library : DivX 6.8.5 (UTC 2009-08-20)
   Audio #1
      ID : 1
      Format : MPEG Audio
      Format version : Version 1
      Format profile : Layer 3
      Mode : Joint stereo
      Mode extension : MS Stereo
      Codec ID : 55
      Codec ID/Hint : MP3
      Duration : 41mn 7s
      Bit rate mode : Constant
      Bit rate : 128 Kbps
      Channel(s) : 2 channels
      Sampling rate : 48.0 KHz
      Compression mode : Lossy
      Stream size : 37.7 MiB (8%)
      Alignment : Split accross interleaves
      Interleave, duration : 40 ms (1.00 video frame)
      Interleave, preload duration : 500 ms
Семпл: http://multi-up.com/899090

picpicpicpicpicpicpicpicpicpicpicpicpicpicpicpic
Для увеличения картинки щелкните мышкой по превью

Этот торрент недоступен для скачивания без регистрации, однако доступен по публичной magnet-ссылке (источники с публичных трекеров). Перед использованием ссылки прочтите, пожалуйста Пользовательское соглашение, а также как можно дольше оставайтесь на раздаче! Для того, чтобы скачать сам торрент-файл (который видит больше источников), а также для того, чтобы поблагодарить релизера, вам необходимо зарегистрироваться. Если регистрироваться лень - вы можете также попробовать скачать релиз по нашим партнерским ссылкам ниже.

[underverse.su].t31160.torrent
Трекер: Зарегистрирован   [ 22.09.2013 19:07 ]  

Статус: проверено (by Чертёнок at 22.09.2013 19:25)
Поблагодарили: 2 человека
Тип торрента: публичный - доступные источники с открытых трекеров: 
Размер: 12,12 GB (занимает 2,77 DVDR, для записи нужно 3 болванки DVDR/RW)
 
 


Последний раз редактировалось: nemos (22.09.2013 19:07), всего редактировалось 2 раз(а)

nemos Пол:Муж

31-Авг-2013 17:53

Торрент обновлён! Добавлены серии: 5-24 .

Яндекс.Метрика powered by Sphinx


В Н И М А Н И Е
Сайт не распространяет и не хранит электронные версии произведений, а лишь бесплатно и без коммерческой выгоды (не требуя взамен платы,
SMS и т.д.) предоставляет доступ к создаваемому пользователями каталогу ссылок на торрент-файлы, которые содержат только списки хеш-сумм.
Убедительная просьба с жалобами обращаться напрямую к пользователю, разместившему торрент файл.

Вверх