Loading...
Error

Ледниковый период 4: Континентальный дрейф / Ice Age: Continental Drift (Стив Мартино, Майк Тёрмайер) [2012 г., мультфильм, комедия, приключения, семейный, HDRip]

 
Автор Сообщение

maddd Пол:Муж

13-Окт-2012 10:56

Ледниковый период 4: Континентальный дрейф / Ice Age: Continental Drift


Год выпуска: 2012
Жанр: мультфильм, комедия, приключения, семейный
Страна: США
Режиссер: Стив Мартино, Майк Тёрмайер
Роли озвучивали: Рэй Романо, Джон Легуизамо, Куин Латифа, Дэнис Лири, Джош Пек, Питер Динклэйдж, Кеке Палмер, Дженнифер Лопез, Ник Фрост, Азиз Ансари
Сюжет фильма:
После приключений под землей прошло семь лет. Случился дрейф континентов. Главные герои мультфильма, отделённые от стада, вынуждены использовать айсберг в качестве плота. Они пересекают океан и попадают в неизвестные им ранее земли с экзотическими животными и пиратами, враждебно настроенными к ним. Скрэту удаётся получить свой жёлудь, но он перемещается в новые для него земли.
Продолжительность: 01:27:45
Формат: avi
Видео: XviD, 720x304, 1685 kbps
Аудио: русский, дублированный, AC3 5.1, 448 kbps

Код:

General
Complete name                    : E:\Lednikovui.period.4.D.HDRip.1400Mb.avi
Format                           : AVI
Format/Info                      : Audio Video Interleave
File size                        : 1.37 GiB
Duration                         : 1h 27mn
Overall bit rate                 : 2 230 Kbps
Writing application              : VirtualDubMod 1.5.10.2 (build 2540/release)
Writing library                  : VirtualDubMod build 2540/release

Video
ID                               : 0
Format                           : MPEG-4 Visual
Format profile                   : Streaming Video@L1
Format settings, BVOP            : Yes
Format settings, QPel            : No
Format settings, GMC             : No warppoints
Format settings, Matrix          : Default (MPEG)
Codec ID                         : XVID
Codec ID/Hint                    : XviD
Duration                         : 1h 27mn
Bit rate                         : 1 685 Kbps
Width                            : 720 pixels
Height                           : 304 pixels
Display aspect ratio             : 2.35
Frame rate                       : 23.976 fps
Resolution                       : 24 bits
Colorimetry                      : 4:2:0
Scan type                        : Progressive
Bits/(Pixel*Frame)               : 0.321
Stream size                      : 1.03 GiB (76%)
Writing library                  : XviD 1.2.1 (UTC 2008-12-04)

Audio
ID                               : 1
Format                           : AC-3
Format/Info                      : Audio Coding 3
Codec ID                         : 2000
Duration                         : 1h 27mn
Bit rate mode                    : Constant
Bit rate                         : 448 Kbps
Channel(s)                       : 6 channels
Channel positions                : Front: L C R, Surround: L R, LFE
Sampling rate                    : 48.0 KHz
Stream size                      : 281 MiB (20%)
Alignment                        : Split accross interleaves

picpicpicpicpic
Download Для того, чтобы скачать этот торрент, необходимо залогиниться! Если у Вас нет логина на нашем трекере - зарегистрируйтесь, и он у Вас будет.

Как качать с торрент трекера  ·   Что такое torrent (торрент)  ·   Рейтинг и ограничения

 
Похожие темы
Форум Тема Автор Торрент Отв. Посл. сооб.
Мультфильмы HQ Ледниковый период 3: Эра динозавров / Ice Age: Dawn of the Dinosaurs (Карлос Салдана, Майк Трумейер) [2009 г., комедия, приключения, семейный, мультфильм, BDRip] Паукан
0 | 0

0 | 2263

23

02.10.2009 19:49

Зарубежные мультфильмы Ледниковый период / Ice Age (Крис Ведж / Chris Wedge, Карлос Салдана / Carlos Saldanha) [2002 г., комедия, приключения, семейный, мультфильм, HDRip-AVC] floatrx
2 | 0

5 | 1544

34

02.01.2014 16:01

Зарубежные мультфильмы Ледниковый период: Столкновение неизбежно / Ice Age: Collision Course (Майк Тёрмайер / Mike Thurmeier, Гален Т. Чу / Galen T. Chu) [2016 г., мультфильм, фантастика, комедия, приключения, семейный,... 90ytr90
95 | 15

0 | 275

9

16.11.2016 08:01

Зарубежные мультфильмы Ледниковый период 4: Континентальный дрейф / Ice Age: Continental Drift (Стив Мартино, Майк Тёрмайер) [2012 г., мультфильм, комедия, приключения, семейный, BDRip-AVC] Dub(Rus,Ukr) + Original + 6xSub garry
1 | 0

1 | 1527

58

30.01.2013 07:44

Зарубежные мультфильмы Ледниковый Период (Квадрология + Бонус) (Карлос Салдана, Крис Уэдж, Стив Мартино, Майк Тёрмайер, Карен Дишер) [2002-2012 г., мультфильм, комедия, приключения, семейный, DVDRip] Dub ryzhkovroman
0 | 0

4 | 2128

23

25.02.2013 07:27

Зарубежные мультфильмы Ледниковый период / Ice Age (Крис Ведж / Chris Wedge, Карлос Салдана / Carlos Saldanha) [2002 г., комедия, приключения, семейный, мультфильм, BDRip] Dub + Original + AVO (Гоблин) 90ytr90
12 | 1

0 | 634

13

02.01.2014 16:51

Зарубежные мультфильмы Ледниковый период: Столкновение неизбежно / Ice Age: Collision Course (Майк Тёрмайер / Mike Thurmeier, Гален Т. Чу / Galen T. Chu) [2016 г., мультфильм, фантастика, комедия, приключения, семейный,... 90ytr90
48 | 5

0 | 231

1

03.11.2016 15:34

Зарубежные мультфильмы Ледниковый период: Столкновение неизбежно / Ice Age: Collision Course (Майк Тёрмайер / Mike Thurmeier, Гален Т. Чу / Galen T. Chu) [2016 г., мультфильм, фантастика, комедия, приключения, семейный,... 90ytr90
162 | 21

0 | 192

6

03.11.2016 15:16

Зарубежные мультфильмы Ледниковый период: Столкновение неизбежно / Ice Age: Collision Course (Майк Тёрмайер / Mike Thurmeier, Гален Т. Чу / Galen T. Chu) [2016 г., мультфильм, фантастика, комедия, приключения, семейный,... 90ytr90
52 | 5

0 | 186

1

03.11.2016 15:11

Зарубежные мультфильмы Ледниковый период: Столкновение неизбежно / Ice Age: Collision Course (Майк Тёрмайер / Mike Thurmeier, Гален Т. Чу / Galen T. Chu) [2016 г., мультфильм, фантастика, комедия, приключения, семейный,... 90ytr90
48 | 4

0 | 178

1

03.11.2016 14:42



Последний раз редактировалось: maddd (13.10.2012 11:51), всего редактировалось 2 раз(а)

13-Окт-2012 11:49

Топик был перенесен из форума Черновики в форум Зарубежные мультфильмы


maddd
 

Яндекс.Метрика powered by Sphinx


В Н И М А Н И Е
Сайт не распространяет и не хранит электронные версии произведений, а лишь бесплатно и без коммерческой выгоды (не требуя взамен платы,
SMS и т.д.) предоставляет доступ к создаваемому пользователями каталогу ссылок на торрент-файлы, которые содержат только списки хеш-сумм.
Убедительная просьба с жалобами обращаться напрямую к пользователю, разместившему торрент файл.

Вверх