Loading...
Error

Динамо: Невероятный иллюзионист / Dynamo: Magician Impossible (2 сезон / 4 из 4) [2012 г., Шоу, фокусы, SatRip] VO (НТВ+)

Статистика раздачи
Размер:  2,51 GB   |    Зарегистрирован:  4 года 1 месяц   |    Скачан:  19 раз

Полного источника не было: 6 месяцев

Сидов:  0  |  0 KB/s  ]   Личеров:  0  |  0 KB/s  ]

* - сиды/пиры с внешних источников

   
 
Автор Сообщение

ZondeR Пол:Муж

13-Окт-2012 05:36

Динамо: Невероятный иллюзионист / Dynamo: Magician Impossible


Год выпуска: 2012
Жанр: Шоу, фокусы
Страна: Великобритания

Сюжет фильма:
Невероятный иллюзионист 2: Вы верите в чудеса? Тогда новая программа Discovery Channel «Динамо: невероятный иллюзионист» предназначена именно для вас: трюки, которые устраивает британский фокусник Динамо, сложно объяснить одной лишь ловкостью рук. Иллюзионист покажет свои самые захватывающие номера. Вы увидите, как снег со склонов австрийских гор превращается в бриллианты, как крылья бабочки становятся зеленым древесным листом, как монета проникает сквозь стекло, как мобильный телефон необъяснимым образом оказывается внутри стеклянной бутылки с узким горлышком и как артист демонстрирует чудеса левитации, уподобляясь Нео из фильма «Матрица». Ассистентами Динамо станут мировые знаменитости, в том числе легенда рок-музыки Иэн Браун.
Доп. информация: Запись сделана с телеканала НТВ+ (Discovery). 08.10.2012.
Качество видео: SatRip
Продолжительность: 00:44:01
Формат: avi
Видео: DivX 5, 704x400, 1900 kbps
Аудио: русский, одноголосый закадровый [профессиональный] (НТВ+), MP3 2.0, 128 kbps

Код:

General
Complete name                    : E:\Квин\Динамо. Иллюзионист. 2\Динамо. Иллюзионист. 2. Багга. (1 серия)..avi
Format                           : AVI
Format/Info                      : Audio Video Interleave
File size                        : 642 MiB
Duration                         : 44mn 1s
Overall bit rate                 : 2 038 Kbps
Writing application              : VirtualDubMod 1.5.10.3 | www.virtualdub-fr.org || (build 2550/release)
Writing library                  : VirtualDubMod build 2550/release

Video
ID                               : 0
Format                           : MPEG-4 Visual
Format profile                   : Streaming Video@L1
Format settings, BVOP            : Yes
Format settings, QPel            : No
Format settings, GMC             : No warppoints
Format settings, Matrix          : Default (MPEG)
Codec ID                         : DX50
Codec ID/Hint                    : DivX 5
Duration                         : 44mn 1s
Bit rate                         : 1 900 Kbps
Width                            : 704 pixels
Height                           : 400 pixels
Display aspect ratio             : 16/9
Frame rate                       : 25.000 fps
Resolution                       : 24 bits
Colorimetry                      : 4:2:0
Scan type                        : Progressive
Bits/(Pixel*Frame)               : 0.270
Stream size                      : 599 MiB (93%)
Writing library                  : XviD 1.2.1 (UTC 2008-12-04)

Audio
ID                               : 1
Format                           : MPEG Audio
Format version                   : Version 1
Format profile                   : Layer 3
Codec ID                         : 55
Codec ID/Hint                    : MP3
Duration                         : 44mn 1s
Bit rate mode                    : Constant
Bit rate                         : 128 Kbps
Channel(s)                       : 2 channels
Sampling rate                    : 48.0 KHz
Resolution                       : 16 bits
Stream size                      : 40.3 MiB (6%)
Alignment                        : Aligned on interleaves
Interleave, duration             : 40 ms (1.00 video frame)
Interleave, preload duration     : 504 ms

picpic
Для увеличения картинки щелкните мышкой по превью

Динамо: Невероятный иллюзионист / Dynamo: Magician Impossible (1 сезон/4 из 4)

Этот торрент недоступен для скачивания без регистрации, однако доступен по публичной magnet-ссылке (источники с публичных трекеров). Перед использованием ссылки прочтите, пожалуйста Пользовательское соглашение, а также как можно дольше оставайтесь на раздаче! Для того, чтобы скачать сам торрент-файл (который видит больше источников), а также для того, чтобы поблагодарить релизера, вам необходимо зарегистрироваться. Если регистрироваться лень - вы можете также попробовать скачать релиз по нашим партнерским ссылкам ниже.

[underverse.su].t20893.torrent
Трекер: Зарегистрирован   [ 28.10.2012 19:56 ]  

Статус: проверено (by ZondeR at 28.10.2012 19:57)
Поблагодарили: 1 человек
Тип торрента: публичный - доступные источники с открытых трекеров: 
Размер: 2,51 GB (занимает 0,57 DVDR, для записи нужно 1 болванка DVDR/RW)
 
 
Похожие темы
Форум Тема Автор Торрент Отв. Посл. сооб.
Discovery Динамо: Невероятный иллюзионист / Dynamo: Magician Impossible (1 сезон/4 из 4) [2012 г., Шоу, фокусы, SatRip] VO (НТВ+) ZondeR
0 | 0

4 | 1977

47

04.10.2012 18:33

Discovery Динамо: Невероятный иллюзионист / Dynamo: Magician Impossible (3 сезон / 4 из 4) [2013 г., Шоу, фокусы, IPTVRip] ZondeR
0 | 0

1 | 2088

11

21.10.2013 09:06

Discovery Динамо: Невероятный иллюзионист / Dynamo: Magician Impossible (4 сезон / 4 из 4) [2014 г., Шоу, фокусы, HDTVRip] ZondeR
5 | 1

0 | 1003

18

02.12.2014 16:13



Последний раз редактировалось: ZondeR (28.10.2012 20:09), всего редактировалось 1 раз

ZondeR Пол:Муж

28-Окт-2012 20:02

Внимание! Раздача обновлена, все 4 серии!

Яндекс.Метрика powered by Sphinx


В Н И М А Н И Е
Сайт не распространяет и не хранит электронные версии произведений, а лишь бесплатно и без коммерческой выгоды (не требуя взамен платы,
SMS и т.д.) предоставляет доступ к создаваемому пользователями каталогу ссылок на торрент-файлы, которые содержат только списки хеш-сумм.
Убедительная просьба с жалобами обращаться напрямую к пользователю, разместившему торрент файл.

Вверх