Loading...
Error

Инспектор Купер / Серии: 1-24 (24) (Антон Косков, Олег Ларин, Душан Глигоров) [2012, криминал, SATRip]

Статистика раздачи
Размер:  12,94 GB   |    Зарегистрирован:  4 года 1 месяц   |    Скачан:  3 раза

Полного источника не было: 2 года

Сидов:  0  |  0 KB/s  ]   Личеров:  0  |  0 KB/s  ]

* - сиды/пиры с внешних источников

   
 
Автор Сообщение

nemos Пол:Муж

12-Окт-2012 20:20

Инспектор Купер


Год выпуска: 2012
Жанр: криминал, детектив
Страна: Россия
Режиссер: Антон Косков, Олег Ларин, Душан Глигоров
В ролях: Олег Чернов, Алексей Аптовцев, Мария Сёмкина, Артём Цуканов, Юлия Куварзина, Елена Меркулова, Никита Панфилов, Юлия Сафонова, Дмитрий Родонов, Евгений Ермаков
Сюжет фильма:
В Арсенале, одном из промышленных районов российской глубинки, живет Алексей Куприянов по прозвищу Купер. Его жизнь меняется после убийства друга — чтобы вести собственное расследование, и капитан Куприянов уходит из оперативного отдела, и становится участковым инспектором. В Арсенале все ему свое, родное: и бывшая жена со своими проблемами, и сын в переходном возрасте, и девушки-красавицы, и местные жители, которые обращаются к нему за помощью, и даже бандиты, терроризирующие городок. Но Купер не из робких, и точно знает, как со всем этим справиться…


Качество видео: SatRip

Продолжительность: 00:45:43серия
Формат: AVI
Видео: XviD, 704x384 , 1 483kbps
Аудио: русский, MP3 2.0, 128 kbps

Код:

E:\СКАЧКИ\С underverse\Inspektor Kuper\Inspektor Kuper-24.avi
   General
      Complete name : E:\СКАЧКИ\С underverse\Inspektor Kuper\Inspektor Kuper-24.avi
      Format : AVI
      Format/Info : Audio Video Interleave
      File size : 530 MiB
      Duration : 45mn 43s
      Overall bit rate : 1 620 Kbps
      Writing application : VirtualDubMod 1.5.10.2 (build 2540/release)
      Writing library : VirtualDubMod build 2540/release
   Video #0
      ID : 0
      Format : MPEG-4 Visual
      Format profile : Advanced Simple@L5
      Format settings, BVOP : 2
      Format settings, QPel : No
      Format settings, GMC : No warppoints
      Format settings, Matrix : Default (H.263)
      Muxing mode : Packed bitstream
      Codec ID : XVID
      Codec ID/Hint : XviD
      Duration : 45mn 43s
      Bit rate : 1 483 Kbps
      Width : 704 pixels
      Height : 384 pixels
      Display aspect ratio : 1.85:1
      Frame rate : 25.000 fps
      Color space : YUV
      Chroma subsampling : 4:2:0
      Bit depth : 8 bits
      Scan type : Progressive
      Compression mode : Lossy
      Bits/(Pixel*Frame) : 0.219
      Stream size : 485 MiB (92%)
      Writing library : XviD 58
   Audio #1
      ID : 1
      Format : MPEG Audio
      Format version : Version 1
      Format profile : Layer 3
      Mode : Joint stereo
      Mode extension : MS Stereo
      Codec ID : 55
      Codec ID/Hint : MP3
      Duration : 45mn 43s
      Bit rate mode : Constant
      Bit rate : 128 Kbps
      Channel(s) : 2 channels
      Sampling rate : 48.0 KHz
      Compression mode : Lossy
      Stream size : 41.9 MiB (8%)
      Alignment : Aligned on interleaves
      Interleave, duration : 40 ms (1.00 video frame)
      Interleave, preload duration : 504 ms
Семпл: http://multi-up.com/774537

picpicpicpicpicpicpicpicpicpicpicpic
Для увеличения картинки щелкните мышкой по превью

Этот торрент недоступен для скачивания без регистрации, однако доступен по публичной magnet-ссылке (источники с публичных трекеров). Перед использованием ссылки прочтите, пожалуйста Пользовательское соглашение, а также как можно дольше оставайтесь на раздаче! Для того, чтобы скачать сам торрент-файл (который видит больше источников), а также для того, чтобы поблагодарить релизера, вам необходимо зарегистрироваться. Если регистрироваться лень - вы можете также попробовать скачать релиз по нашим партнерским ссылкам ниже.

[underverse.su].t20773.torrent
Трекер: Зарегистрирован   [ 24.10.2012 07:24 ]  

Статус: проверено (by garry at 24.10.2012 09:35)
Поблагодарили: пока никто не поблагодарил...
Тип торрента: публичный - доступные источники с открытых трекеров: 
Размер: 12,94 GB (занимает 2,96 DVDR, для записи нужно 3 болванки DVDR/RW)
 
 
Похожие темы
Форум Тема Автор Торрент Отв. Посл. сооб.
Зарубежные сериалы Инспектор Винтер / Kommissarie Winter / Сезон 1 (1-8 из 8) (Эмильяно Гессенс, Тригве Аллистер Дайсен, Молли Хартлеб) [2010 г., криминал, DVDRip] MVO (ТВХХІ) + Original Dryn9
3 | 0

0 | 752

2

01.05.2016 07:20

xUSSR сериалы Инспектор Купер-2 (1-30 серия из 30) (Наталия Бучнева, Александр Картохин, Алексей Богданов, Максим Кубринский.) [2015 г., детектив, SatRip] nemos
1 | 0

1 | 1650

7

27.05.2015 17:55



Последний раз редактировалось: nemos (06.11.2014 12:39), всего редактировалось 13 раз(а)

nemos Пол:Муж

16-Окт-2012 08:15

Обновлен

nemos Пол:Муж

17-Окт-2012 06:58

Обновлена

nemos Пол:Муж

19-Окт-2012 02:06

Обновлена

nemos Пол:Муж

20-Окт-2012 09:39

Обновлен

nemos Пол:Муж

23-Окт-2012 06:41

Обновлена.

nemos Пол:Муж

24-Окт-2012 07:25

Обновлен

ALKS1952 Пол:Муж

16-Ноя-2012 09:58

http://underverse.su/viewtopic.php?t=21870#

garry Пол:Муж

16-Ноя-2012 11:00

ALKS1952
в чем смысл Вашего поста?

Яндекс.Метрика powered by Sphinx


В Н И М А Н И Е
Сайт не распространяет и не хранит электронные версии произведений, а лишь бесплатно и без коммерческой выгоды (не требуя взамен платы,
SMS и т.д.) предоставляет доступ к создаваемому пользователями каталогу ссылок на торрент-файлы, которые содержат только списки хеш-сумм.
Убедительная просьба с жалобами обращаться напрямую к пользователю, разместившему торрент файл.

Вверх