Loading...
Error

Кнопка тревоги / Panic Button (Крис Кроу) [2011 г., ужасы, триллер, HDRip] VO (den904)

Статистика раздачи
Размер:  1,46 GB   |    Зарегистрирован:  4 года 10 месяцев   |    Скачан:  15 раз

Полного источника не было: 4 года 4 месяца

Сидов:  0  |  0 KB/s  ]   Личеров:  0  |  0 KB/s  ]

* - сиды/пиры с внешних источников

   
 
Автор Сообщение

DarkAngel Пол:Муж

12-Окт-2012 19:56

Кнопка тревоги / Panic Button


Год выпуска: 2011
Жанр: ужасы, триллер
Страна: Великобритания
Режиссер: Крис Кроу
В ролях: Скарлет Джонсон, Джек Гордон, Майкл Джибсон, Элен Риз, Джошуа Ричардс, Верн Рэй, Meggie McCarthy, Сара Паркс, Christopher Cale, Ри Ричардс
Сюжет фильма:
Четверо молодых людей выиграли поездку в Нью-Йорк, любезно предоставленную одной из социальных сетей. Когда они поднимаются на борт частного самолета, их просят отказаться от своих мобильных телефонов и принять участие в очень необычной игре…

  • Мировая премьера: 27 августа 2011


Качество видео: HDRip

Продолжительность: 01:35:39
Формат: AVI
Видео: XviD, 720x304 (2.37:1), ~1786 kbps
Аудио: русский, одноголосый закадровый [любительский (den904)], AC3 5.1, ~384 kbps

Код:

General
 Complete name                    : D:\Downloads\Panic.Button.2011.HDRip.XviD-denashekkk.avi
 Format                           : AVI
 Format/Info                      : Audio Video Interleave
 File size                        : 1.46 GiB
 Duration                         : 1h 35mn
 Overall bit rate                 : 2 180 Kbps
 Writing application              : VirtualDubMod 1.5.10.3 | www.virtualdub-fr.org || (build 2550/release)
 Writing library                  : VirtualDubMod build 2550/release

Video
 ID                               : 0
 Format                           : MPEG-4 Visual
 Format profile                   : Advanced Simple@L5
 Format settings, BVOP            : 2
 Format settings, QPel            : No
 Format settings, GMC             : No warppoints
 Format settings, Matrix          : Custom
 Codec ID                         : XVID
 Codec ID/Hint                    : XviD
 Duration                         : 1h 35mn
 Bit rate                         : 1 787 Kbps
 Width                            : 720 pixels
 Height                           : 304 pixels
 Display aspect ratio             : 2.35:1
 Frame rate                       : 23.976 fps
 Color space                      : YUV
 Chroma subsampling               : 4:2:0
 Bit depth                        : 8 bits
 Scan type                        : Progressive
 Compression mode                 : Lossy
 Bits/(Pixel*Frame)               : 0.340
 Stream size                      : 1.19 GiB (82%)
 Writing library                  : XviD 64

Audio
 ID                               : 1
 Format                           : AC-3
 Format/Info                      : Audio Coding 3
 Mode extension                   : CM (complete main)
 Codec ID                         : 2000
 Duration                         : 1h 35mn
 Bit rate mode                    : Constant
 Bit rate                         : 384 Kbps
 Channel(s)                       : 6 channels
 Channel positions                : Front: L C R, Side: L R, LFE
 Sampling rate                    : 48.0 KHz
 Bit depth                        : 16 bits
 Compression mode                 : Lossy
 Stream size                      : 263 MiB (18%)
 Alignment                        : Split accross interleaves
 Interleave, duration             : 42 ms (1.00 video frame)
 Interleave, preload duration     : 500 ms
Семпл: http://multi-up.com/614758

picpicpic
Для увеличения картинки щелкните мышкой по превью

Этот торрент недоступен для скачивания без регистрации, однако доступен по публичной magnet-ссылке (источники с публичных трекеров). Перед использованием ссылки прочтите, пожалуйста Пользовательское соглашение, а также как можно дольше оставайтесь на раздаче! Для того, чтобы скачать сам торрент-файл (который видит больше источников), а также для того, чтобы поблагодарить релизера, вам необходимо зарегистрироваться. Если регистрироваться лень - вы можете также попробовать скачать релиз по нашим партнерским ссылкам ниже.

[underverse.su].t20529.torrent
Трекер: Зарегистрирован   [ 12.10.2012 19:56 ]  

Статус: проверено (by garry at 12.10.2012 20:10)
Поблагодарили: 1 человек
Тип торрента: публичный - доступные источники с открытых трекеров: 
Размер: 1,46 GB (занимает 1/3 DVDR, для записи нужно 1 болванка DVDR/RW)
 
 

Яндекс.Метрика powered by Sphinx


В Н И М А Н И Е
Сайт не распространяет и не хранит электронные версии произведений, а лишь бесплатно и без коммерческой выгоды (не требуя взамен платы,
SMS и т.д.) предоставляет доступ к создаваемому пользователями каталогу ссылок на торрент-файлы, которые содержат только списки хеш-сумм.
Убедительная просьба с жалобами обращаться напрямую к пользователю, разместившему торрент файл.

Вверх